Nalazite se trenutno ovde:


*
MS Tim



    D O B R O D O S L I    ! ! !




* Pravila foruma

KODIRANJE LINKOVA
Sve linkove ili grupe linkova koji vode ka drugim sajtovima, a koje ostavljate u svojim porukama morate staviti izmedju odgovarajućih CODE tagova. Da bi linkovi bili vidljivi, treba kliknuti na dugme "Hvala" koje je obojeno plavim slovima, i nalazi se ispod avatara korisnika koji je postavio temu ili post.

DUPLIRANJE TEMA
Pre nego što želite da otvorite neku temu i postavite neke linkove...izvršite PRETRAGU. Izaberete željenu sekciju i namestite da Vam pretraga prikaže rezultate kao TEME, da biste imali sto pregledniji uvid u postavljene teme na forumu i da izbegnete da postavite duplikat.

POSTAVLJANJE TEMA
Da biste sebi i drugim članovima olakšali pretragu na forumu, potrebno je da temama date originalne nazive i godine proizvodnje.


Gigantes (2018)

Autor (Pročitano 174 puta)

0 Članovi i 1 gost pregledaju ovu temu.

Gigantes (2018)
« poslato: 17 Decembar 2018, 16:58:16 »
 

Van mreže lemonzoo

  • Zahvalnice
  • -Zahvalio: 110
  • -Pohvaljen: 4030
  • VIP
  • Aktivan član
  • *
  • 372
    Poruke
Gigantes (2018)






Ovde je skriveni sadržaj !!!
Ovaj sadržaj mogu videti samo registrovani članovi nakon zahvaljivanja na dugme HVALA




Braća Gerero su nasledili potpunu kontrolu nad protokom kokaina u Evropu preko Španije od svog moćnog oca, Abrama. On ih je naučio da dominiraju nad svojim bližnjima i upotrebljavaju moć koju pružaju novac i nasilje. Zajedno će eliminisati rivalske porodice i poniziti ih primoravajući ih da napuste svoj grad. Sada se suočavaju sa jednim od krucijalnih momenata svoje istorije. Najstariji brat, Danijel, izlazi iz zatvora nakon 9 godina sa željom da povrati svoje mesto u porodici. Najgori neprijatelj braće se nalazi u njihovoj kući, među njima samima. Obrazovanje koje im je pružio njihov otac, da se bore kao čopor pasa da bi preživeli, bilo kojim sredstvima i bez moralnih prepreka, kao divovi, dovešće do bratoubilačkog rata sa brojnim posledicama koje će biti šansa za Anhelu Markes, policajku opsednutu hapšenjem celog klana Gerero.

Gigantes - Temporada 1 [HDTV 720p][Cap.101][AC3 5.1 Castellano]

Citat
General
Unique ID : 200923033644927012840498379182928578804 (0x97285E6336D750B7995B126F808848F4)
Complete name : /home/hd3/***/torrents/data/Gigantes - Temporada 1 [HDTV 720p][Cap.101][AC3 5.1 Castellano]/Gigantes720p_101.mkv
Format : Matroska
Format version : Version 2
File size : 2.07 GiB
Duration : 53mn 4s
Overall bit rate mode : Variable
Overall bit rate : 5 595 Kbps
Movie name : Gigantes720p_101_descargas2020
Encoded date : UTC 2018-10-05 02:10:41
Writing application : mkvmerge v4.9.1 ('Ich will') creado el Jul 11 2011 23:53:15
Writing library : libebml v1.2.1 + libmatroska v1.1.1

Video
ID : 1
Format : AVC
Format/Info : Advanced Video Codec
Format profile : [email protected]
Format settings, CABAC : No
Format settings, ReFrames : 1 frame
Format settings, GOP : M=1, N=12
Codec ID : V_MPEG4/ISO/AVC
Duration : 53mn 4s
Bit rate mode : Variable
Bit rate : 5 100 Kbps
Maximum bit rate : 7 500 Kbps
Width : 1 280 pixels
Height : 720 pixels
Display aspect ratio : 16:9
Frame rate mode : Constant
Frame rate : 25.000 fps
Original frame rate : 24.000 fps
Color space : YUV
Chroma subsampling : 4:2:0
Bit depth : 8 bits
Scan type : Progressive
Bits/(Pixel*Frame) : 0.221
Stream size : 1.89 GiB (91%)
Title : Gigantes720p_101_descargas2020
Default : Yes
Forced : No

Audio
ID : 2
Format : AC-3
Format/Info : Audio Coding 3
Mode extension : CM (complete main)
Format settings, Endianness : Big
Codec ID : A_AC3
Duration : 53mn 4s
Bit rate mode : Constant
Bit rate : 384 Kbps
Channel(s) : 6 channels
Channel positions : Front: L C R, Side: L R, LFE
Sampling rate : 48.0 KHz
Frame rate : 31.250 fps (1536 spf)
Compression mode : Lossy
Stream size : 146 MiB (7%)
Language : Spanish
Default : Yes
Forced : No


https://i.postimg.cc/BnqvD7yP/frame0.png
Gigantes (2018)

https://i.postimg.cc/Kvmbsk5d/frame2.png
Gigantes (2018)

https://i.postimg.cc/j5NTBymr/frame3.png
Gigantes (2018)





Ovde je skriveni sadržaj !!!
Ovaj sadržaj mogu videti samo registrovani članovi nakon zahvaljivanja na dugme HVALA




Titlovi:



Ovde je skriveni sadržaj !!!
Ovaj sadržaj mogu videti samo registrovani članovi nakon zahvaljivanja na dugme HVALA