Nalazite se trenutno ovde:


*
MS Tim



    D O B R O D O S L I    ! ! !




* Pravila foruma

KODIRANJE LINKOVA
Sve linkove ili grupe linkova koji vode ka drugim sajtovima, a koje ostavljate u svojim porukama morate staviti izmedju odgovarajućih CODE tagova. Da bi linkovi bili vidljivi, treba kliknuti na dugme "Hvala" koje je obojeno plavim slovima, i nalazi se ispod avatara korisnika koji je postavio temu ili post.

DUPLIRANJE TEMA
Pre nego što želite da otvorite neku temu i postavite neke linkove...izvršite PRETRAGU. Izaberete željenu sekciju i namestite da Vam pretraga prikaže rezultate kao TEME, da biste imali sto pregledniji uvid u postavljene teme na forumu i da izbegnete da postavite duplikat.

POSTAVLJANJE TEMA
Da biste sebi i drugim članovima olakšali pretragu na forumu, potrebno je da temama date originalne nazive i godine proizvodnje.


Mr Selfridge (2013)

Autor (Pročitano 135 puta)

0 Članovi i 1 gost pregledaju ovu temu.

Mr Selfridge (2013)
« poslato: 07 Decembar 2018, 08:37:22 »
 

Van mreže lemonzoo

  • Zahvalnice
  • -Zahvalio: 110
  • -Pohvaljen: 4030
  • VIP
  • Aktivan član
  • *
  • 372
    Poruke
Mr Selfridge (2013)






Ovde je skriveni sadržaj !!!
Ovaj sadržaj mogu videti samo registrovani članovi nakon zahvaljivanja na dugme HVALA




Radnja serije smještena je u London 1909., u doba kad su se žene prepuštale užicima što su ih donosile novostečene slobode i moderna era. Harry je tim ženama želio udovoljiti, dati im moć i odati počast pa je tako otvorio vrata svoje raskošne robne kuće u slavnoj londonskoj Ulici Oxford. Kroz prizmu inovacija i spektakla koje je Harry u robnoj kući uprizorio, pripovijest razotkriva neopisane trenutke iz ženske povijesti, bilo da je posrijedi moda, kozmetika, tehnologija i domaćinstvo. Pozornica Harryjevog burnog života raskošni je londonski mozaik na prijelazu stoljeća. U slobodno vrijeme bio je kockar, i premda sretno oženjen, uživao je u društvu glamuroznih zabavljačica i filmskih zvijezda. Bio je legendarni ženskar, a život je živio u petoj brzini.
Autor ove serije višestruko je nagrađivani scenarist Andrew Davies koji zajedno s Kate Brooke i Kate O'Riordan potpisuje i scenarij "Mr Selfridgea", pripovijesti o Harryju, čovjeku koji je dobio nadimak Sto Na Sat i koji si je zacrtao da će kupovanje pretvoriti u uzbuđenje jednako seksu. Pionirskog i vratolomnog duha, gotovo manične energije, on je stvorio maloprodajno kazalište gdje su svaki novi, golicavi, zabavni - ili ponekad jednostavno ekscentrični - tema ili trend nalazili svoje mjesto.

Mr.Selfridge.S01.1080p.BluRay.x264-SHORTBREHD

Citat
General
Complete name : /home/hd3/***/torrents/data/Mr.Selfridge.S01.1080p.BluRay.x264-SHORTBREHD/mr.selfridge.s01e01.1080p.bluray.x264-shortbrehd.mkv
Format : Matroska
Format version : Version 2
File size : 4.37 GiB
Duration : 1h 4mn
Overall bit rate : 9 638 Kbps
Writing application : x264.exe
Writing library : mkv2rls v1.4 (date: 2011 mar 29)

Video
ID : 1
Format : AVC
Format/Info : Advanced Video Codec
Format profile : [email protected]
Format settings, CABAC : Yes
Format settings, ReFrames : 4 frames
Codec ID : V_MPEG4/ISO/AVC
Duration : 1h 4mn
Bit rate : 8 998 Kbps
Width : 1 920 pixels
Height : 1 080 pixels
Display aspect ratio : 16:9
Frame rate mode : Constant
Frame rate : 23.976 (24000/1001) fps
Color space : YUV
Chroma subsampling : 4:2:0
Bit depth : 8 bits
Scan type : Progressive
Bits/(Pixel*Frame) : 0.181
Stream size : 3.99 GiB (91%)
Writing library : x264 core 130 r2273 b3065e6
Encoding settings : cabac=1 / ref=4 / deblock=1:0:0 / analyse=0x3:0x113 / me=umh / subme=8 / psy=1 / psy_rd=1.00:0.00 / mixed_ref=1 / me_range=16 / chroma_me=1 / trellis=1 / 8x8dct=1 / cqm=0 / deadzone=21,11 / fast_pskip=1 / chroma_qp_offset=-2 / threads=12 / lookahead_threads=2 / sliced_threads=0 / nr=0 / decimate=1 / interlaced=0 / bluray_compat=0 / constrained_intra=0 / bframes=3 / b_pyramid=2 / b_adapt=2 / b_bias=0 / direct=3 / weightb=1 / open_gop=0 / weightp=2 / keyint=240 / keyint_min=24 / scenecut=40 / intra_refresh=0 / rc_lookahead=50 / rc=2pass / mbtree=1 / bitrate=8998 / ratetol=1.0 / qcomp=0.60 / qpmin=0 / qpmax=69 / qpstep=4 / cplxblur=20.0 / qblur=0.5 / ip_ratio=1.40 / aq=1:1.00
Language : English
Default : Yes
Forced : No

Audio
ID : 2
Format : AC-3
Format/Info : Audio Coding 3
Mode extension : CM (complete main)
Format settings, Endianness : Big
Codec ID : A_AC3
Duration : 1h 4mn
Bit rate mode : Constant
Bit rate : 640 Kbps
Channel(s) : 6 channels
Channel(s)_Original : 2 channels
Channel positions : Front: L R
Sampling rate : 48.0 KHz
Frame rate : 31.250 fps (1536 spf)
Compression mode : Lossy
Stream size : 297 MiB (7%)
Language : English
Default : Yes
Forced : No

Menu
00:00:00.000 : en:00:00:00.000
00:11:57.050 : en:00:11:57.050
00:22:19.672 : en:00:22:19.672
00:31:28.512 : en:00:31:28.512
00:44:38.426 : en:00:44:38.426
00:53:02.471 : en:00:53:02.471

https://i.postimg.cc/8pSQQJpv/frame0.jpg
Mr Selfridge (2013)

https://i.postimg.cc/nVFyryQc/frame2.jpg
Mr Selfridge (2013)

https://i.postimg.cc/vMXRkZp1/frame5.jpg
Mr Selfridge (2013)





Ovde je skriveni sadržaj !!!
Ovaj sadržaj mogu videti samo registrovani članovi nakon zahvaljivanja na dugme HVALA





Titlovi:



Ovde je skriveni sadržaj !!!
Ovaj sadržaj mogu videti samo registrovani članovi nakon zahvaljivanja na dugme HVALA


 


Odg: Mr Selfridge (2013)
« Odgovor #1 poslato: 07 Decembar 2018, 08:37:41 »
 

Van mreže lemonzoo

  • Zahvalnice
  • -Zahvalio: 110
  • -Pohvaljen: 4030
  • VIP
  • Aktivan član
  • *
  • 372
    Poruke
Mr Selfridge (2013)






Ovde je skriveni sadržaj !!!
Ovaj sadržaj mogu videti samo registrovani članovi nakon zahvaljivanja na dugme HVALA




Radnja serije smještena je u London 1909., u doba kad su se žene prepuštale užicima što su ih donosile novostečene slobode i moderna era. Harry je tim ženama želio udovoljiti, dati im moć i odati počast pa je tako otvorio vrata svoje raskošne robne kuće u slavnoj londonskoj Ulici Oxford. Kroz prizmu inovacija i spektakla koje je Harry u robnoj kući uprizorio, pripovijest razotkriva neopisane trenutke iz ženske povijesti, bilo da je posrijedi moda, kozmetika, tehnologija i domaćinstvo. Pozornica Harryjevog burnog života raskošni je londonski mozaik na prijelazu stoljeća. U slobodno vrijeme bio je kockar, i premda sretno oženjen, uživao je u društvu glamuroznih zabavljačica i filmskih zvijezda. Bio je legendarni ženskar, a život je živio u petoj brzini.
Autor ove serije višestruko je nagrađivani scenarist Andrew Davies koji zajedno s Kate Brooke i Kate O'Riordan potpisuje i scenarij "Mr Selfridgea", pripovijesti o Harryju, čovjeku koji je dobio nadimak Sto Na Sat i koji si je zacrtao da će kupovanje pretvoriti u uzbuđenje jednako seksu. Pionirskog i vratolomnog duha, gotovo manične energije, on je stvorio maloprodajno kazalište gdje su svaki novi, golicavi, zabavni - ili ponekad jednostavno ekscentrični - tema ili trend nalazili svoje mjesto.

Mr.Selfridge.S02.1080p.BluRay.x264-BRAVERY

Citat
General
Unique ID : 179707511627098779114965998656203522597 (0x87326864C133E944B847234D79EC0225)
Complete name : /home/hd3/***/torrents/data/Mr.Selfridge.S02.1080p.BluRay.x264-BRAVERY/Mr.Selfridge.S02E01.1080p.BluRay.x264-BRAVERY.mkv
Format : Matroska
Format version : Version 2
File size : 4.37 GiB
Duration : 49mn 37s
Overall bit rate : 12.6 Mbps
Encoded date : UTC 2014-04-29 19:01:58
Writing application : mkvmerge v6.9.1 ('Blue Panther') 32bit built on Apr 18 2014 18:15:44
Writing library : libebml v1.3.0 + libmatroska v1.4.1

Video
ID : 1
Format : AVC
Format/Info : Advanced Video Codec
Format profile : [email protected]
Format settings, CABAC : Yes
Format settings, ReFrames : 4 frames
Codec ID : V_MPEG4/ISO/AVC
Duration : 49mn 37s
Bit rate : 11.1 Mbps
Width : 1 920 pixels
Height : 1 080 pixels
Display aspect ratio : 16:9
Frame rate mode : Constant
Frame rate : 23.976 (24000/1001) fps
Color space : YUV
Chroma subsampling : 4:2:0
Bit depth : 8 bits
Scan type : Progressive
Bits/(Pixel*Frame) : 0.223
Stream size : 3.76 GiB (86%)
Writing library : x264 core 142 r2409 d6b4e63
Encoding settings : cabac=1 / ref=4 / deblock=1:-1:-1 / analyse=0x3:0x113 / me=umh / subme=8 / psy=1 / psy_rd=1.00:0.00 / mixed_ref=1 / me_range=16 / chroma_me=1 / trellis=1 / 8x8dct=1 / cqm=0 / deadzone=21,11 / fast_pskip=0 / chroma_qp_offset=-2 / threads=12 / lookahead_threads=2 / sliced_threads=0 / nr=0 / decimate=1 / interlaced=0 / bluray_compat=0 / constrained_intra=0 / bframes=3 / b_pyramid=2 / b_adapt=2 / b_bias=0 / direct=3 / weightb=1 / open_gop=0 / weightp=2 / keyint=240 / keyint_min=23 / scenecut=40 / intra_refresh=0 / rc_lookahead=50 / rc=2pass / mbtree=1 / bitrate=11095 / ratetol=1.0 / qcomp=0.60 / qpmin=10 / qpmax=51 / qpstep=4 / cplxblur=20.0 / qblur=0.5 / vbv_maxrate=62500 / vbv_bufsize=78125 / nal_hrd=none / filler=0 / ip_ratio=1.40 / aq=1:1.00
Language : English
Default : Yes
Forced : No

Audio
ID : 2
Format : DTS
Format/Info : Digital Theater Systems
Mode : 16
Format settings, Endianness : Big
Codec ID : A_DTS
Duration : 49mn 37s
Bit rate mode : Constant
Bit rate : 1 509 Kbps
Channel(s) : 2 channels
Channel positions : Front: L R
Sampling rate : 48.0 KHz
Frame rate : 93.750 fps (512 spf)
Bit depth : 24 bits
Compression mode : Lossy
Stream size : 536 MiB (12%)
Language : English
Default : Yes
Forced : No

Text
ID : 3
Format : UTF-8
Codec ID : S_TEXT/UTF8
Codec ID/Info : UTF-8 Plain Text
Language : English
Default : No
Forced : No

Menu
00:00:00.000 : en:00:00:00.000
00:08:08.238 : en:00:08:08.238
00:16:36.662 : en:00:16:36.662
00:24:14.578 : en:00:24:14.578
00:36:43.701 : en:00:36:43.701
00:44:06.435 : en:00:44:06.435
00:48:58.936 : en:00:48:58.936

https://i.postimg.cc/zJw2hdNL/frame2.jpg
Mr Selfridge (2013)

https://i.postimg.cc/TdR7Jr2t/frame3.jpg
Mr Selfridge (2013)

https://i.postimg.cc/2k2HcVVr/frame4.jpg
Mr Selfridge (2013)





Ovde je skriveni sadržaj !!!
Ovaj sadržaj mogu videti samo registrovani članovi nakon zahvaljivanja na dugme HVALA





Titlovi:



Ovde je skriveni sadržaj !!!
Ovaj sadržaj mogu videti samo registrovani članovi nakon zahvaljivanja na dugme HVALA


 

Odg: Mr Selfridge (2013)
« Odgovor #2 poslato: 07 Decembar 2018, 08:38:02 »
 

Van mreže lemonzoo

  • Zahvalnice
  • -Zahvalio: 110
  • -Pohvaljen: 4030
  • VIP
  • Aktivan član
  • *
  • 372
    Poruke
Mr Selfridge (2013)






Ovde je skriveni sadržaj !!!
Ovaj sadržaj mogu videti samo registrovani članovi nakon zahvaljivanja na dugme HVALA




Radnja serije smještena je u London 1909., u doba kad su se žene prepuštale užicima što su ih donosile novostečene slobode i moderna era. Harry je tim ženama želio udovoljiti, dati im moć i odati počast pa je tako otvorio vrata svoje raskošne robne kuće u slavnoj londonskoj Ulici Oxford. Kroz prizmu inovacija i spektakla koje je Harry u robnoj kući uprizorio, pripovijest razotkriva neopisane trenutke iz ženske povijesti, bilo da je posrijedi moda, kozmetika, tehnologija i domaćinstvo. Pozornica Harryjevog burnog života raskošni je londonski mozaik na prijelazu stoljeća. U slobodno vrijeme bio je kockar, i premda sretno oženjen, uživao je u društvu glamuroznih zabavljačica i filmskih zvijezda. Bio je legendarni ženskar, a život je živio u petoj brzini.
Autor ove serije višestruko je nagrađivani scenarist Andrew Davies koji zajedno s Kate Brooke i Kate O'Riordan potpisuje i scenarij "Mr Selfridgea", pripovijesti o Harryju, čovjeku koji je dobio nadimak Sto Na Sat i koji si je zacrtao da će kupovanje pretvoriti u uzbuđenje jednako seksu. Pionirskog i vratolomnog duha, gotovo manične energije, on je stvorio maloprodajno kazalište gdje su svaki novi, golicavi, zabavni - ili ponekad jednostavno ekscentrični - tema ili trend nalazili svoje mjesto.

Mr.Selfridge.S03.1080p.BluRay.x264-FLHD

Citat
General
Unique ID : 233695781200693729224556997114572927990 (0xAFD02B9811A82B13B0DB3FCB752973F6)
Complete name : /home/hd3/***/torrents/data/Mr.Selfridge.S03.1080p.BluRay.x264-FLHD/flhd-mss03e01-1080p.mkv
Format : Matroska
Format version : Version 2
File size : 3.27 GiB
Duration : 46mn 7s
Overall bit rate : 10.2 Mbps
Encoded date : UTC 2015-09-23 06:10:32
Writing application : mkvmerge v3.3.0 ('Language') built on Mar 24 2010 14:59:24
Writing library : libebml v0.8.0 + libmatroska v0.9.0

Video
ID : 1
Format : AVC
Format/Info : Advanced Video Codec
Format profile : [email protected]
Format settings, CABAC : Yes
Format settings, ReFrames : 4 frames
Codec ID : V_MPEG4/ISO/AVC
Duration : 46mn 7s
Bit rate : 8 640 Kbps
Width : 1 920 pixels
Height : 1 080 pixels
Display aspect ratio : 16:9
Frame rate mode : Constant
Frame rate : 23.976 (24000/1001) fps
Color space : YUV
Chroma subsampling : 4:2:0
Bit depth : 8 bits
Scan type : Progressive
Bits/(Pixel*Frame) : 0.174
Stream size : 2.72 GiB (83%)
Writing library : x264 core 148 r2597 e86f3a1
Encoding settings : cabac=1 / ref=4 / deblock=1:-1:-1 / analyse=0x3:0x113 / me=umh / subme=7 / psy=1 / psy_rd=1.00:0.00 / mixed_ref=1 / me_range=16 / chroma_me=1 / trellis=1 / 8x8dct=1 / cqm=0 / deadzone=21,11 / fast_pskip=1 / chroma_qp_offset=-2 / threads=12 / lookahead_threads=2 / sliced_threads=0 / nr=0 / decimate=1 / interlaced=0 / bluray_compat=0 / constrained_intra=0 / bframes=3 / b_pyramid=2 / b_adapt=2 / b_bias=0 / direct=3 / weightb=1 / open_gop=0 / weightp=2 / keyint=250 / keyint_min=23 / scenecut=40 / intra_refresh=0 / rc_lookahead=40 / rc=2pass / mbtree=1 / bitrate=8640 / ratetol=1.0 / qcomp=0.60 / qpmin=0 / qpmax=69 / qpstep=4 / cplxblur=20.0 / qblur=0.5 / vbv_maxrate=50000 / vbv_bufsize=50000 / nal_hrd=none / filler=0 / ip_ratio=1.40 / aq=1:1.00
Language : English
Default : Yes
Forced : No

Audio
ID : 2
Format : DTS
Format/Info : Digital Theater Systems
Mode : 16
Format settings, Endianness : Big
Codec ID : A_DTS
Duration : 46mn 7s
Bit rate mode : Constant
Bit rate : 1 509 Kbps
Channel(s) : 2 channels
Channel positions : Front: L R
Sampling rate : 48.0 KHz
Frame rate : 93.750 fps (512 spf)
Bit depth : 16 bits
Compression mode : Lossy
Stream size : 498 MiB (15%)
Language : English
Default : Yes
Forced : No


https://i.postimg.cc/0kQ3qYgb/frame0.jpg
Mr Selfridge (2013)

https://i.postimg.cc/vYNK84MX/frame2.jpg
Mr Selfridge (2013)

https://i.postimg.cc/PH39QRZZ/frame3.jpg
Mr Selfridge (2013)






Ovde je skriveni sadržaj !!!
Ovaj sadržaj mogu videti samo registrovani članovi nakon zahvaljivanja na dugme HVALA





Titlovi:



Ovde je skriveni sadržaj !!!
Ovaj sadržaj mogu videti samo registrovani članovi nakon zahvaljivanja na dugme HVALA


 

Odg: Mr Selfridge (2013)
« Odgovor #3 poslato: 07 Decembar 2018, 08:38:57 »
 

Van mreže lemonzoo

  • Zahvalnice
  • -Zahvalio: 110
  • -Pohvaljen: 4030
  • VIP
  • Aktivan član
  • *
  • 372
    Poruke
Mr Selfridge (2013)






Ovde je skriveni sadržaj !!!
Ovaj sadržaj mogu videti samo registrovani članovi nakon zahvaljivanja na dugme HVALA




Radnja serije smještena je u London 1909., u doba kad su se žene prepuštale užicima što su ih donosile novostečene slobode i moderna era. Harry je tim ženama želio udovoljiti, dati im moć i odati počast pa je tako otvorio vrata svoje raskošne robne kuće u slavnoj londonskoj Ulici Oxford. Kroz prizmu inovacija i spektakla koje je Harry u robnoj kući uprizorio, pripovijest razotkriva neopisane trenutke iz ženske povijesti, bilo da je posrijedi moda, kozmetika, tehnologija i domaćinstvo. Pozornica Harryjevog burnog života raskošni je londonski mozaik na prijelazu stoljeća. U slobodno vrijeme bio je kockar, i premda sretno oženjen, uživao je u društvu glamuroznih zabavljačica i filmskih zvijezda. Bio je legendarni ženskar, a život je živio u petoj brzini.
Autor ove serije višestruko je nagrađivani scenarist Andrew Davies koji zajedno s Kate Brooke i Kate O'Riordan potpisuje i scenarij "Mr Selfridgea", pripovijesti o Harryju, čovjeku koji je dobio nadimak Sto Na Sat i koji si je zacrtao da će kupovanje pretvoriti u uzbuđenje jednako seksu. Pionirskog i vratolomnog duha, gotovo manične energije, on je stvorio maloprodajno kazalište gdje su svaki novi, golicavi, zabavni - ili ponekad jednostavno ekscentrični - tema ili trend nalazili svoje mjesto.

Mr.Selfridge.S04.1080p.BluRay.x264-YELLOWBiRD

Citat
General
Unique ID : 218332922263106808427727603546668772346 (0xA441642B22E9435EB19328FA774DABFA)
Complete name : /home/hd3/***/torrents/data/Mr.Selfridge.S04.1080p.BluRay.x264-YELLOWBiRD/Mr.Selfridge.S04E01.1080p.BluRay.x264-YELLOWBiRD.mkv
Format : Matroska
Format version : Version 4 / Version 2
File size : 3.27 GiB
Duration : 45mn 38s
Overall bit rate mode : Variable
Overall bit rate : 10.3 Mbps
Encoded date : UTC 2016-06-25 04:40:23
Writing application : mkvmerge v9.2.0 ('Photograph') 64bit
Writing library : libebml v1.3.3 + libmatroska v1.4.4

Video
ID : 1
Format : AVC
Format/Info : Advanced Video Codec
Format profile : [email protected]
Format settings, CABAC : Yes
Format settings, ReFrames : 4 frames
Codec ID : V_MPEG4/ISO/AVC
Duration : 45mn 38s
Bit rate : 9 643 Kbps
Width : 1 920 pixels
Height : 1 080 pixels
Display aspect ratio : 16:9
Frame rate mode : Constant
Frame rate : 23.976 (24000/1001) fps
Color space : YUV
Chroma subsampling : 4:2:0
Bit depth : 8 bits
Scan type : Progressive
Bits/(Pixel*Frame) : 0.194
Stream size : 3.07 GiB (94%)
Writing library : x264 core 148 r2692 64f4e24
Encoding settings : cabac=1 / ref=4 / deblock=1:-3:-3 / analyse=0x3:0x113 / me=umh / subme=8 / psy=1 / psy_rd=1.00:0.25 / mixed_ref=1 / me_range=24 / chroma_me=1 / trellis=1 / 8x8dct=1 / cqm=0 / deadzone=21,11 / fast_pskip=1 / chroma_qp_offset=-4 / threads=24 / lookahead_threads=4 / sliced_threads=0 / nr=0 / decimate=1 / interlaced=0 / bluray_compat=0 / constrained_intra=0 / bframes=3 / b_pyramid=2 / b_adapt=2 / b_bias=0 / direct=3 / weightb=1 / open_gop=0 / weightp=2 / keyint=240 / keyint_min=24 / scenecut=40 / intra_refresh=0 / rc_lookahead=50 / rc=2pass / mbtree=1 / bitrate=9643 / ratetol=1.0 / qcomp=0.60 / qpmin=0 / qpmax=69 / qpstep=4 / cplxblur=20.0 / qblur=0.5 / ip_ratio=1.40 / aq=1:0.50
Default : Yes
Forced : No

Audio
ID : 2
Format : FLAC
Format/Info : Free Lossless Audio Codec
Codec ID : A_FLAC
Duration : 45mn 38s
Bit rate mode : Variable
Bit rate : 616 Kbps
Channel(s) : 2 channels
Channel positions : Front: L R
Sampling rate : 48.0 KHz
Frame rate : 11.719 fps (4096 spf)
Bit depth : 16 bits
Stream size : 201 MiB (6%)
Writing library : libFLAC 1.2.1 (UTC 2007-09-17)
Language : English
Default : Yes
Forced : No

Menu
00:00:00.000 : en:00:00:00.000
00:05:25.992 : en:00:05:25.992
00:18:17.972 : en:00:18:17.972
00:31:14.623 : en:00:31:14.623
00:39:19.190 : en:00:39:19.190

https://i.postimg.cc/SS6XkMWb/frame0.jpg
Mr Selfridge (2013)

https://i.postimg.cc/b8RG51yQ/frame1.jpg
Mr Selfridge (2013)

https://i.postimg.cc/wgTtY3Mn/frame3.jpg
Mr Selfridge (2013)





Ovde je skriveni sadržaj !!!
Ovaj sadržaj mogu videti samo registrovani članovi nakon zahvaljivanja na dugme HVALA





Titlovi:



Ovde je skriveni sadržaj !!!
Ovaj sadržaj mogu videti samo registrovani članovi nakon zahvaljivanja na dugme HVALA