Nalazite se trenutno ovde:


*
MS Tim



    D O B R O D O S L I    ! ! !




* Pravila foruma

KODIRANJE LINKOVA
Sve linkove ili grupe linkova koji vode ka drugim sajtovima, a koje ostavljate u svojim porukama morate staviti izmedju odgovarajućih CODE tagova. Da bi linkovi bili vidljivi, treba kliknuti na dugme "Hvala" koje je obojeno plavim slovima, i nalazi se ispod avatara korisnika koji je postavio temu ili post.

DUPLIRANJE TEMA
Pre nego što želite da otvorite neku temu i postavite neke linkove...izvršite PRETRAGU. Izaberete željenu sekciju i namestite da Vam pretraga prikaže rezultate kao TEME, da biste imali sto pregledniji uvid u postavljene teme na forumu i da izbegnete da postavite duplikat.

POSTAVLJANJE TEMA
Da biste sebi i drugim članovima olakšali pretragu na forumu, potrebno je da temama date originalne nazive i godine proizvodnje.


Das Boot (2018)

Autor (Pročitano 2064 puta)

0 Članovi i 2 gostiju pregledaju ovu temu.

Das Boot (2018)
« poslato: 28 Novembar 2018, 00:42:17 »
 

Van mreže lemonzoo

  • Zahvalnice
  • -Zahvalio: 110
  • -Pohvaljen: 4105
  • VIP
  • Aktivan član
  • *
  • 374
    Poruke
Das Boot (2018)






Ovde je skriveni sadržaj !!!
Ovaj sadržaj mogu videti samo registrovani članovi nakon zahvaljivanja na dugme HVALA




Das Boot je ratna drama smeštena u jesen 1942. godine, nekoliko meseci nakon završetka radnje iz istoimenog filma. Podmornica U-612 kreće na svoje prvo putovanje s posadom koju vodi kapetan Klaus Hofman. Ratna sreća okreće se protiv Nemaca kada su saveznici razbili Enigma kod. Serija priča dve priče: jedna je putovanje podmornice, a druga priča o pokretu otpora u La Rošelu, Francuska.

Das.Boot.2018.S01E01.GERMAN.720p.HDTV.x264-ACED

Citat
General
Unique ID : 339674720002681179997120416886980938906 (0xFF8AF8B1A1D3FB10E5AA737DF8C90C9A)
Complete name : /home/hd3/***/torrents/data/Das.Boot.2018.S01E01.GERMAN.720p.HDTV.x264-ACED.mkv
Format : Matroska
Format version : Version 4 / Version 2
File size : 1.05 GiB
Duration : 1h 0mn
Overall bit rate : 2 490 Kbps
Encoded date : UTC 2018-11-23 20:18:32
Writing application : mkvmerge v28.2.0 ('The Awakening') 64-bit
Writing library : libebml v1.3.6 + libmatroska v1.4.9 / Lavf57.83.100

Video
ID : 1
Format : AVC
Format/Info : Advanced Video Codec
Format profile : [email protected]
Format settings, CABAC : Yes
Format settings, ReFrames : 5 frames
Codec ID : V_MPEG4/ISO/AVC
Duration : 1h 0mn
Bit rate : 2 056 Kbps
Width : 1 280 pixels
Height : 640 pixels
Display aspect ratio : 2.000
Frame rate mode : Constant
Frame rate : 25.000 fps
Color space : YUV
Chroma subsampling : 4:2:0
Bit depth : 8 bits
Scan type : Progressive
Bits/(Pixel*Frame) : 0.100
Stream size : 888 MiB (83%)
Writing library : x264 core 155 r2901 7d0ff22
Encoding settings : cabac=1 / ref=5 / deblock=1:-3:-3 / analyse=0x3:0x113 / me=umh / subme=9 / psy=1 / psy_rd=1.00:0.00 / mixed_ref=1 / me_range=16 / chroma_me=1 / trellis=2 / 8x8dct=1 / cqm=0 / deadzone=21,11 / fast_pskip=0 / chroma_qp_offset=-2 / threads=18 / lookahead_threads=1 / sliced_threads=0 / nr=0 / decimate=1 / interlaced=0 / bluray_compat=0 / constrained_intra=0 / bframes=3 / b_pyramid=2 / b_adapt=1 / b_bias=0 / direct=3 / weightb=1 / open_gop=0 / weightp=2 / keyint=200 / keyint_min=20 / scenecut=40 / intra_refresh=0 / rc_lookahead=50 / rc=crf / mbtree=1 / crf=18.0 / qcomp=0.60 / qpmin=0 / qpmax=69 / qpstep=4 / ip_ratio=1.40 / aq=1:1.00
Default : Yes
Forced : No
DURATION : 01:00:20.880000000

Audio
ID : 2
Format : AC-3
Format/Info : Audio Coding 3
Mode extension : CM (complete main)
Format settings, Endianness : Big
Codec ID : A_AC3
Duration : 1h 0mn
Bit rate mode : Constant
Bit rate : 384 Kbps
Channel(s) : 6 channels
Channel positions : Front: L C R, Side: L R, LFE
Sampling rate : 48.0 KHz
Frame rate : 31.250 fps (1536 spf)
Compression mode : Lossy
Delay relative to video : -960ms
Stream size : 166 MiB (15%)
Language : German
Default : Yes
Forced : No
DURATION : 01:00:20.800000000


https://i.postimg.cc/q7CRTZsZ/frame0.jpg
Das Boot (2018)

https://i.postimg.cc/qRV7MXQB/frame3.jpg
Das Boot (2018)

https://i.postimg.cc/Y96C4Gy6/frame5.jpg
Das Boot (2018)





Ovde je skriveni sadržaj !!!
Ovaj sadržaj mogu videti samo registrovani članovi nakon zahvaljivanja na dugme HVALA





Titl:



Ovde je skriveni sadržaj !!!
Ovaj sadržaj mogu videti samo registrovani članovi nakon zahvaljivanja na dugme HVALA


« Poslednja izmena: 01 Decembar 2018, 08:30:02 od strane lemonzoo »
 


Odg: Das Boot (2018)
« Odgovor #1 poslato: 28 Novembar 2018, 00:42:40 »
 

Van mreže lemonzoo

  • Zahvalnice
  • -Zahvalio: 110
  • -Pohvaljen: 4105
  • VIP
  • Aktivan član
  • *
  • 374
    Poruke
Das Boot (2018)






Ovde je skriveni sadržaj !!!
Ovaj sadržaj mogu videti samo registrovani članovi nakon zahvaljivanja na dugme HVALA




Das Boot je ratna drama smeštena u jesen 1942. godine, nekoliko meseci nakon završetka radnje iz istoimenog filma. Podmornica U-612 kreće na svoje prvo putovanje s posadom koju vodi kapetan Klaus Hofman. Ratna sreća okreće se protiv Nemaca kada su saveznici razbili Enigma kod. Serija priča dve priče: jedna je putovanje podmornice, a druga priča o pokretu otpora u La Rošelu, Francuska.

Das.Boot.2018.S01E02.GERMAN.1080p.HDTV.h264.INTERNAL-ACED

Citat
General
Unique ID : 244189828039837577248971496664878717546 (0xB7B5400CB13B5721ABA9FD9677129A6A)
Complete name : /home/hd3/***/torrents/data/Das.Boot.2018.S01E02.GERMAN.1080p.HDTV.h264.INTERNAL-ACED.mkv
Format : Matroska
Format version : Version 4 / Version 2
File size : 1.73 GiB
Duration : 57mn 59s
Overall bit rate : 4 269 Kbps
Encoded date : UTC 2018-11-23 21:43:21
Writing application : mkvmerge v27.0.0 ('Metropolis') 64-bit
Writing library : libebml v1.3.6 + libmatroska v1.4.9

Video
ID : 1
Format : AVC
Format/Info : Advanced Video Codec
Format profile : [email protected]
Format settings, CABAC : Yes
Format settings, ReFrames : 4 frames
Codec ID : V_MPEG4/ISO/AVC
Duration : 57mn 59s
Bit rate : 3 800 Kbps
Width : 1 920 pixels
Height : 1 080 pixels
Display aspect ratio : 16:9
Frame rate mode : Constant
Frame rate : 25.000 fps
Standard : Component
Color space : YUV
Chroma subsampling : 4:2:0
Bit depth : 8 bits
Scan type : Interlaced
Scan type, store method : Separated fields
Scan order : Top Field First
Bits/(Pixel*Frame) : 0.073
Stream size : 1.54 GiB (89%)
Default : Yes
Forced : No
Color range : Limited
Color primaries : BT.709
Transfer characteristics : BT.709
Matrix coefficients : BT.709

Audio
ID : 2
Format : AC-3
Format/Info : Audio Coding 3
Mode extension : CM (complete main)
Format settings, Endianness : Big
Codec ID : A_AC3
Duration : 57mn 59s
Bit rate mode : Constant
Bit rate : 384 Kbps
Channel(s) : 6 channels
Channel positions : Front: L C R, Side: L R, LFE
Sampling rate : 48.0 KHz
Frame rate : 31.250 fps (1536 spf)
Compression mode : Lossy
Stream size : 159 MiB (9%)
Language : German
Default : Yes
Forced : No

https://i.postimg.cc/T2xPz0pC/frame0.jpg
Das Boot (2018)

https://i.postimg.cc/wHY3Rq0L/frame4.jpg
Das Boot (2018)

https://i.postimg.cc/37jNgsc6/frame5.jpg
Das Boot (2018)





Ovde je skriveni sadržaj !!!
Ovaj sadržaj mogu videti samo registrovani članovi nakon zahvaljivanja na dugme HVALA





Titl:



Ovde je skriveni sadržaj !!!
Ovaj sadržaj mogu videti samo registrovani članovi nakon zahvaljivanja na dugme HVALA


« Poslednja izmena: 01 Decembar 2018, 08:29:45 od strane lemonzoo »
 

Odg: Das Boot (2018)
« Odgovor #2 poslato: 06 Decembar 2018, 21:36:11 »
 

Van mreže lemonzoo

  • Zahvalnice
  • -Zahvalio: 110
  • -Pohvaljen: 4105
  • VIP
  • Aktivan član
  • *
  • 374
    Poruke
Das Boot (2018)






Ovde je skriveni sadržaj !!!
Ovaj sadržaj mogu videti samo registrovani članovi nakon zahvaljivanja na dugme HVALA




Das Boot je ratna drama smeštena u jesen 1942. godine, nekoliko meseci nakon završetka radnje iz istoimenog filma. Podmornica U-612 kreće na svoje prvo putovanje s posadom koju vodi kapetan Klaus Hofman. Ratna sreća okreće se protiv Nemaca kada su saveznici razbili Enigma kod. Serija priča dve priče: jedna je putovanje podmornice, a druga priča o pokretu otpora u La Rošelu, Francuska.

Das.Boot.2018.S01E03.GERMAN.1080p.HDTV.x264-ACED



Ovde je skriveni sadržaj !!!
Ovaj sadržaj mogu videti samo registrovani članovi nakon zahvaljivanja na dugme HVALA



Das.Boot.2018.S01E04.GERMAN.1080p.HDTV.x264-ACED



Ovde je skriveni sadržaj !!!
Ovaj sadržaj mogu videti samo registrovani članovi nakon zahvaljivanja na dugme HVALA




Titl:



Ovde je skriveni sadržaj !!!
Ovaj sadržaj mogu videti samo registrovani članovi nakon zahvaljivanja na dugme HVALA


 

Odg: Das Boot (2018)
« Odgovor #3 poslato: 08 Decembar 2018, 18:50:16 »
 

Van mreže lemonzoo

  • Zahvalnice
  • -Zahvalio: 110
  • -Pohvaljen: 4105
  • VIP
  • Aktivan član
  • *
  • 374
    Poruke
Das.Boot.2018.S01E05.GERMAN.1080p.HDTV.h264.INTERNAL-ACED



Ovde je skriveni sadržaj !!!
Ovaj sadržaj mogu videti samo registrovani članovi nakon zahvaljivanja na dugme HVALA



Das.Boot.2018.S01E06.GERMAN.1080p.HDTV.h264.INTERNAL-ACED



Ovde je skriveni sadržaj !!!
Ovaj sadržaj mogu videti samo registrovani članovi nakon zahvaljivanja na dugme HVALA




Titl:



Ovde je skriveni sadržaj !!!
Ovaj sadržaj mogu videti samo registrovani članovi nakon zahvaljivanja na dugme HVALA


 

Odg: Das Boot (2018)
« Odgovor #4 poslato: 09 Decembar 2018, 19:15:02 »
 

Na mreži kuga53™

  • Zahvalnice
  • -Zahvalio: 55
  • -Pohvaljen: 120823
  • Global Moderator
  • Prijatelj foruma
  • *
  • 14918
    Poruke
  • "Ko ništa ne zna, ne razume ništa,bezvredan je."

Epizoda 001
Prilagodjena za kucni DVDPlayer
https://i.postimg.cc/nLFgSR2v/Das-Boot-2018-S01-E01-avi.jpg
Das Boot (2018)






Ovde je skriveni sadržaj !!!
Ovaj sadržaj mogu videti samo registrovani članovi nakon zahvaljivanja na dugme HVALA







Ovde je skriveni sadržaj !!!
Ovaj sadržaj mogu videti samo registrovani članovi nakon zahvaljivanja na dugme HVALA



Ako planirate da kupite Uploaded i Uptobox Premium racun uradite to koristeci moj Reflink

http://ul.to/ref/3076984

https://uptobox.com/affiliate/372156

 

Odg: Das Boot (2018)
« Odgovor #5 poslato: 09 Decembar 2018, 19:17:47 »
 

Na mreži kuga53™

  • Zahvalnice
  • -Zahvalio: 55
  • -Pohvaljen: 120823
  • Global Moderator
  • Prijatelj foruma
  • *
  • 14918
    Poruke
  • "Ko ništa ne zna, ne razume ništa,bezvredan je."
Epizoda 002
Prilagodjena za kucni DVDPlayer
https://i.postimg.cc/ZR9fX1dy/Das-Boot-2018-S01-E02-avi.jpg
Das Boot (2018)






Ovde je skriveni sadržaj !!!
Ovaj sadržaj mogu videti samo registrovani članovi nakon zahvaljivanja na dugme HVALA







Ovde je skriveni sadržaj !!!
Ovaj sadržaj mogu videti samo registrovani članovi nakon zahvaljivanja na dugme HVALA


Ako planirate da kupite Uploaded i Uptobox Premium racun uradite to koristeci moj Reflink

http://ul.to/ref/3076984

https://uptobox.com/affiliate/372156

 

Odg: Das Boot (2018)
« Odgovor #6 poslato: 09 Decembar 2018, 19:18:54 »
 

Na mreži kuga53™

  • Zahvalnice
  • -Zahvalio: 55
  • -Pohvaljen: 120823
  • Global Moderator
  • Prijatelj foruma
  • *
  • 14918
    Poruke
  • "Ko ništa ne zna, ne razume ništa,bezvredan je."
Epizoda 003
Prilagodjena za kucni DVDPlayer
https://i.postimg.cc/KzX3KVQn/Das-Boot-2018-S01-E03-avi.jpg
Das Boot (2018)






Ovde je skriveni sadržaj !!!
Ovaj sadržaj mogu videti samo registrovani članovi nakon zahvaljivanja na dugme HVALA







Ovde je skriveni sadržaj !!!
Ovaj sadržaj mogu videti samo registrovani članovi nakon zahvaljivanja na dugme HVALA


« Poslednja izmena: 15 Decembar 2018, 09:03:11 od strane kuga53™ »
Ako planirate da kupite Uploaded i Uptobox Premium racun uradite to koristeci moj Reflink

http://ul.to/ref/3076984

https://uptobox.com/affiliate/372156

 

Odg: Das Boot (2018)
« Odgovor #7 poslato: 14 Decembar 2018, 00:29:50 »
 

Na mreži kuga53™

  • Zahvalnice
  • -Zahvalio: 55
  • -Pohvaljen: 120823
  • Global Moderator
  • Prijatelj foruma
  • *
  • 14918
    Poruke
  • "Ko ništa ne zna, ne razume ništa,bezvredan je."


Epizoda 004
Prilagodjena za kucni DVDPlayer
https://i.postimg.cc/DyxVPpms/Das-Boot-2018-S01-E04-avi.jpg
Das Boot (2018)






Ovde je skriveni sadržaj !!!
Ovaj sadržaj mogu videti samo registrovani članovi nakon zahvaljivanja na dugme HVALA







Ovde je skriveni sadržaj !!!
Ovaj sadržaj mogu videti samo registrovani članovi nakon zahvaljivanja na dugme HVALA





« Poslednja izmena: 14 Decembar 2018, 20:16:34 od strane kuga53™ »
Ako planirate da kupite Uploaded i Uptobox Premium racun uradite to koristeci moj Reflink

http://ul.to/ref/3076984

https://uptobox.com/affiliate/372156

 

Odg: Das Boot (2018)
« Odgovor #8 poslato: 14 Decembar 2018, 00:31:36 »
 

Na mreži kuga53™

  • Zahvalnice
  • -Zahvalio: 55
  • -Pohvaljen: 120823
  • Global Moderator
  • Prijatelj foruma
  • *
  • 14918
    Poruke
  • "Ko ništa ne zna, ne razume ništa,bezvredan je."


Epizoda 005
Prilagodjena za kucni DVDPlayer
https://i.postimg.cc/PJMgc24g/Das-Boot-2018-S01-E05-avi.jpg
Das Boot (2018)






Ovde je skriveni sadržaj !!!
Ovaj sadržaj mogu videti samo registrovani članovi nakon zahvaljivanja na dugme HVALA







Ovde je skriveni sadržaj !!!
Ovaj sadržaj mogu videti samo registrovani članovi nakon zahvaljivanja na dugme HVALA


Ako planirate da kupite Uploaded i Uptobox Premium racun uradite to koristeci moj Reflink

http://ul.to/ref/3076984

https://uptobox.com/affiliate/372156

 

Odg: Das Boot (2018)
« Odgovor #9 poslato: 14 Decembar 2018, 07:50:51 »
 

Van mreže lemonzoo

  • Zahvalnice
  • -Zahvalio: 110
  • -Pohvaljen: 4105
  • VIP
  • Aktivan član
  • *
  • 374
    Poruke
Das.Boot.2018.S01E01.GERMAN.1080p.HDTV.x264-ACED



Ovde je skriveni sadržaj !!!
Ovaj sadržaj mogu videti samo registrovani članovi nakon zahvaljivanja na dugme HVALA