Nalazite se trenutno ovde:


*
MS Tim



    D O B R O D O S L I    ! ! !




* Pravila foruma

KODIRANJE LINKOVA
Sve linkove ili grupe linkova koji vode ka drugim sajtovima, a koje ostavljate u svojim porukama morate staviti izmedju odgovarajućih CODE tagova. Da bi linkovi bili vidljivi, treba kliknuti na dugme "Hvala" koje je obojeno plavim slovima, i nalazi se ispod avatara korisnika koji je postavio temu ili post.

DUPLIRANJE TEMA
Pre nego što želite da otvorite neku temu i postavite neke linkove...izvršite PRETRAGU. Izaberete željenu sekciju i namestite da Vam pretraga prikaže rezultate kao TEME, da biste imali sto pregledniji uvid u postavljene teme na forumu i da izbegnete da postavite duplikat.

POSTAVLJANJE TEMA
Da biste sebi i drugim članovima olakšali pretragu na forumu, potrebno je da temama date originalne nazive i godine proizvodnje.


Elvis (2005) AKA Elvis: The Early Years

Autor (Pročitano 175 puta)

0 Članovi i 1 gost pregledaju ovu temu.

Elvis (2005) AKA Elvis: The Early Years
« poslato: 23 Novembar 2018, 19:25:18 »
 

Van mreže lemonzoo

  • Zahvalnice
  • -Zahvalio: 110
  • -Pohvaljen: 4026
  • VIP
  • Aktivan član
  • *
  • 372
    Poruke
Elvis (2005) AKA Elvis: The Early Years






Ovde je skriveni sadržaj !!!
Ovaj sadržaj mogu videti samo registrovani članovi nakon zahvaljivanja na dugme HVALA




CBS-ova mini-serija scenarista Patricka Sheanea Duncana i redatelja Jamesa Stevena Sadwitha, prati uspon američke glazbene legende Elvisa Presleya, od njegovih skromnih početaka u Tupelu u Mississippiju do međunarodne slave.
Glumili su Jonathan Rhys Meyers u ulozi Presleya, Rose McGowan kao Ann-Margret, Randy Quaid kao "Pukovnik" Tom Parker, Camryn Manheim kao Gladys Presley, Robert Patrick kao Vernon Presley, Antonia Bernath kao Priscilla Presley i drugi.
Jonathan Rhys Meyers osvojio je Zlatni Globus za svoju ulogu Elvisa Presleya.

Elvis.The.Early.Years.DVDRip.2005.MoRT!.XviD

Citat
General
Complete name : /home/hd3/***/torrents/data/Elvis The Early Years/Elvis.The.Early.Years.DVDRip.2005.MoRT!.XviD.avi
Format : AVI
Format/Info : Audio Video Interleave
File size : 1 000 MiB
Duration : 2h 45mn
Overall bit rate mode : Variable
Overall bit rate : 846 Kbps
Writing application : VirtualDubMod 1.5.4.1 (build 2178/release)
Writing library : VirtualDubMod build 2178/release

Video
ID : 0
Format : MPEG-4 Visual
Format profile : Advanced [email protected]
Format settings, BVOP : 1
Format settings, QPel : No
Format settings, GMC : No warppoints
Format settings, Matrix : Custom
Codec ID : XVID
Codec ID/Hint : XviD
Duration : 2h 45mn
Bit rate : 726 Kbps
Width : 608 pixels
Height : 336 pixels
Display aspect ratio : 16:9
Frame rate : 25.000 fps
Color space : YUV
Chroma subsampling : 4:2:0
Bit depth : 8 bits
Scan type : Progressive
Compression mode : Lossy
Bits/(Pixel*Frame) : 0.142
Stream size : 858 MiB (86%)
Writing library : XviD 1.2.1 (UTC 2008-12-04)

Audio
ID : 1
Format : MPEG Audio
Format version : Version 1
Format profile : Layer 3
Mode : Joint stereo
Mode extension : MS Stereo
Codec ID : 55
Codec ID/Hint : MP3
Duration : 2h 45mn
Bit rate mode : Variable
Bit rate : 107 Kbps
Nominal bit rate : 128 Kbps
Channel(s) : 2 channels
Sampling rate : 48.0 KHz
Compression mode : Lossy
Stream size : 127 MiB (13%)
Alignment : Aligned on interleaves
Interleave, duration : 24 ms (0.60 video frame)
Interleave, preload duration : 171 ms
Writing library : LAME3.98r
Encoding settings : -m j -V 4 -q 2 -lowpass 17 --abr 128
Language : English









Ovde je skriveni sadržaj !!!
Ovaj sadržaj mogu videti samo registrovani članovi nakon zahvaljivanja na dugme HVALA




Titlovi:



Ovde je skriveni sadržaj !!!
Ovaj sadržaj mogu videti samo registrovani članovi nakon zahvaljivanja na dugme HVALA


 


Odg: Elvis (2005) AKA Elvis: The Early Years
« Odgovor #1 poslato: 08 Decembar 2018, 21:23:01 »
 

Van mreže lemonzoo

  • Zahvalnice
  • -Zahvalio: 110
  • -Pohvaljen: 4026
  • VIP
  • Aktivan član
  • *
  • 372
    Poruke
Elvis (2005) AKA Elvis: The Early Years






Ovde je skriveni sadržaj !!!
Ovaj sadržaj mogu videti samo registrovani članovi nakon zahvaljivanja na dugme HVALA




CBS-ova mini-serija scenarista Patricka Sheanea Duncana i redatelja Jamesa Stevena Sadwitha, prati uspon američke glazbene legende Elvisa Presleya, od njegovih skromnih početaka u Tupelu u Mississippiju do međunarodne slave.
Glumili su Jonathan Rhys Meyers u ulozi Presleya, Rose McGowan kao Ann-Margret, Randy Quaid kao "Pukovnik" Tom Parker, Camryn Manheim kao Gladys Presley, Robert Patrick kao Vernon Presley, Antonia Bernath kao Priscilla Presley i drugi.
Jonathan Rhys Meyers osvojio je Zlatni Globus za svoju ulogu Elvisa Presleya.

Elvis.2005.720p.BluRay.H264.AAC-RARBG

Citat
General
Complete name : /home/hd3/***/torrents/data/Elvis.2005.720p.BluRay.H264.AAC-RARBG/Elvis.2005.720p.BluRay.H264.AAC-RARBG.mp4
Format : MPEG-4
Format profile : Base Media
Codec ID : isom (isom/iso2/avc1/mp41)
File size : 2.09 GiB
Duration : 2h 53mn
Overall bit rate : 1 731 Kbps
Movie name : Elvis.2005.720p.BluRay.H264.AAC-RARBG
Encoded date : UTC 1904-01-01 00:00:00
Tagged date : UTC 1904-01-01 00:00:00
Writing application : Lavf56.16.102
Comment : Elvis.2005.720p.BluRay.H264.AAC-RARBG

Video
ID : 1
Format : AVC
Format/Info : Advanced Video Codec
Format profile : [email protected]
Format settings, CABAC : Yes
Format settings, ReFrames : 4 frames
Codec ID : avc1
Codec ID/Info : Advanced Video Coding
Duration : 2h 52mn
Bit rate : 1 500 Kbps
Width : 1 280 pixels
Height : 720 pixels
Display aspect ratio : 16:9
Frame rate mode : Constant
Frame rate : 23.976 (23976/1000) fps
Color space : YUV
Chroma subsampling : 4:2:0
Bit depth : 8 bits
Scan type : Progressive
Bits/(Pixel*Frame) : 0.068
Stream size : 1.81 GiB (87%)
Writing library : x264 core 144 r2525M 40bb568
Encoding settings : cabac=1 / ref=4 / deblock=1:-1:-1 / analyse=0x3:0x113 / me=umh / subme=9 / psy=1 / psy_rd=1.00:0.15 / mixed_ref=1 / me_range=24 / chroma_me=1 / trellis=2 / 8x8dct=1 / cqm=0 / deadzone=21,11 / fast_pskip=1 / chroma_qp_offset=-3 / threads=32 / lookahead_threads=4 / sliced_threads=0 / nr=0 / decimate=1 / interlaced=0 / bluray_compat=0 / constrained_intra=0 / bframes=3 / b_pyramid=2 / b_adapt=1 / b_bias=0 / direct=1 / weightb=1 / open_gop=0 / weightp=2 / keyint=250 / keyint_min=25 / scenecut=40 / intra_refresh=0 / rc_lookahead=50 / rc=2pass / mbtree=1 / bitrate=1500 / ratetol=1.0 / qcomp=0.60 / qpmin=0 / qpmax=69 / qpstep=4 / cplxblur=20.0 / qblur=0.5 / vbv_maxrate=31250 / vbv_bufsize=31250 / nal_hrd=none / filler=0 / ip_ratio=1.40 / aq=3:1.00
Encoded date : UTC 1904-01-01 00:00:00
Tagged date : UTC 1904-01-01 00:00:00
Menus : 3

Audio
ID : 2
Format : AAC
Format/Info : Advanced Audio Codec
Format profile : LC
Codec ID : 40
Duration : 2h 53mn
Bit rate mode : Constant
Bit rate : 224 Kbps
Channel(s) : 2 channels
Channel(s)_Original : 6 channels
Channel positions : Front: L C R, Side: L R, LFE
Sampling rate : 48.0 KHz
Frame rate : 46.875 fps (1024 spf)
Compression mode : Lossy
Stream size : 277 MiB (13%)
Language : English
Default : Yes
Alternate group : 1
Encoded date : UTC 1904-01-01 00:00:00
Tagged date : UTC 1904-01-01 00:00:00
Menus : 3

Menu #1
ID : 3
Codec ID : text
Duration : 2h 53mn
Language : English
Encoded date : UTC 1904-01-01 00:00:00
Tagged date : UTC 1904-01-01 00:00:00
Menu For : 1,2
00:00:00.000 : Chapter 1
00:06:32.477 : Chapter 2
00:14:45.386 : Chapter 3
00:21:11.063 : Chapter 4
00:27:55.217 : Chapter 5
00:34:53.176 : Chapter 6
00:42:57.785 : Chapter 7
00:49:50.197 : Chapter 8
00:55:49.306 : Chapter 9
01:02:28.413 : Chapter 10
01:10:13.836 : Chapter 11
01:16:48.564 : Chapter 12
01:25:58.738 : Chapter 13
01:32:51.609 : Chapter 14
01:40:18.681 : Chapter 15
01:47:30.696 : Chapter 16
01:53:59.167 : Chapter 17
02:02:06.237 : Chapter 18
02:08:28.285 : Chapter 19
02:15:17.152 : Chapter 20
02:22:43.098 : Chapter 21
02:28:58.222 : Chapter 22
02:36:06.734 : Chapter 23
02:43:22.210 : Chapter 24
Bit rate mode : VBR

Menu #2
00:00:00.043 : Chapter 1
00:06:32.477 : Chapter 2
00:14:45.386 : Chapter 3
00:21:11.063 : Chapter 4
00:27:55.217 : Chapter 5
00:34:53.176 : Chapter 6
00:42:57.785 : Chapter 7
00:49:50.197 : Chapter 8
00:55:49.306 : Chapter 9
01:02:28.413 : Chapter 10
01:10:13.836 : Chapter 11
01:16:48.564 : Chapter 12
01:25:58.738 : Chapter 13
01:32:51.609 : Chapter 14
01:40:18.681 : Chapter 15
01:47:30.696 : Chapter 16
01:53:59.167 : Chapter 17
02:02:06.237 : Chapter 18
02:08:28.285 : Chapter 19
02:15:17.152 : Chapter 20
02:22:43.098 : Chapter 21
02:28:58.222 : Chapter 22
02:36:06.734 : Chapter 23
02:43:22.210 : Chapter 24

https://i.postimg.cc/D01WR4Ph/frame1.jpg
Elvis (2005) AKA Elvis: The Early Years

https://i.postimg.cc/MZBjng2L/frame3.jpg
Elvis (2005) AKA Elvis: The Early Years

https://i.postimg.cc/Kvy3BQm8/frame8.jpg
Elvis (2005) AKA Elvis: The Early Years





Ovde je skriveni sadržaj !!!
Ovaj sadržaj mogu videti samo registrovani članovi nakon zahvaljivanja na dugme HVALA





Titlovi:



Ovde je skriveni sadržaj !!!
Ovaj sadržaj mogu videti samo registrovani članovi nakon zahvaljivanja na dugme HVALA