Nalazite se trenutno ovde:

*
MS Tim



    D O B R O    D O S L I    ! ! !




* Pravila foruma

KODIRANJE LINKOVA
Sve linkove ili grupe linkova koji vode ka drugim sajtovima, a koje ostavljate u svojim porukama morate staviti izmedju odgovarajućih CODE tagova. Da bi linkovi bili vidljivi, treba kliknuti na dugme "Hvala" koje je obojeno plavim slovima, i nalazi se ispod avatara korisnika koji je postavio temu ili post.

DUPLIRANJE TEMA
Pre nego što želite da otvorite neku temu i postavite neke linkove...izvršite PRETRAGU. Izaberete željenu sekciju i namestite da Vam pretraga prikaže rezultate kao TEME, da biste imali sto pregledniji uvid u postavljene teme na forumu i da izbegnete da postavite duplikat.

POSTAVLJANJE TEMA
Da biste sebi i drugim članovima olakšali pretragu na forumu, potrebno je da temama date originalne nazive i godine proizvodnje.


The Meg (2018)

Autor (Pročitano 1594 puta)

0 Članovi i 1 gost pregledaju ovu temu.

The Meg (2018)
« poslato: 02 Septembar 2018, 10:38:46 »
 

Na mreži drsko™

  • Zahvalnice
  • -Zahvalio: 37
  • -Pohvaljen: 120726
  • Global Moderator
  • Prijatelj foruma
  • *
  • 8466
    Poruke
The Meg (2018)  HDRip

https://s8.postimg.cc/e26tck4j9/The_Meg_2018_720p_HC_HDTC.jpg
The Meg (2018)


 [info]

IMDb: The Meg (2018)



https://i.postimg.cc/4yf7RsB3/The-Meg-2018-HDRip-Xvi-D-AC3-drsko.jpg
The Meg (2018)


 [download]
  mg.log



Ovde je skriveni sadržaj !!!
Ovaj sadržaj mogu videti samo registrovani članovi nakon zahvaljivanja na dugme HVALA


« Poslednja izmena: 14 Oktobar 2018, 21:39:00 od strane drsko™ »
 


Odg: The Meg (2018)
« Odgovor #1 poslato: 14 Oktobar 2018, 21:39:17 »
 

Na mreži drsko™

  • Zahvalnice
  • -Zahvalio: 37
  • -Pohvaljen: 120726
  • Global Moderator
  • Prijatelj foruma
  • *
  • 8466
    Poruke
n-l
 

Odg: The Meg (2018)
« Odgovor #2 poslato: 05 Novembar 2018, 17:27:14 »
 

Na mreži Wolf 13

  • Zahvalnice
  • -Zahvalio: 172
  • -Pohvaljen: 7578
  • VIP
  • Veteran
  • *
  • 717
    Poruke
The Meg (2018) 1080p BRrip AC3 x264 by Wolf
(MKV)

https://i.imgur.com/ZmVQwXT.jpg
The Meg (2018)





Ovde je skriveni sadržaj !!!
Ovaj sadržaj mogu videti samo registrovani članovi nakon zahvaljivanja na dugme HVALA




Citat
General
Unique ID                   : 144062027393517180238840675226044112854 (0x6C61565566E898124BCE0E57304C9FD6)
Complete name               : The Meg (2018) 1080p BRrip AC3 x264 by Wolf.mkv
Format                      : Matroska
Format version              : Version 4 / Version 2
File size                   : 1.39 GiB
Duration                    : 1 h 53 min
Overall bit rate            : 1 757 kb/s
Movie name                  : EVO
Encoded date                : UTC 2018-11-05 14:04:55 / UTC 2018-11-05T10:19:08Z
Writing application         : mkvmerge v28.2.0 ('The Awakening') 64-bit
Writing library             : libebml v1.3.6 + libmatroska v1.4.9 / Lavf57.7.2

Video
ID                          : 1
Format                      : AVC
Format/Info                 : Advanced Video Codec
Format profile              : High [email protected]
Format settings             : CABAC / 5 Ref Frames
Format settings, CABAC      : Yes
Format settings, ReFrames   : 5 frames
Codec ID                    : V_MPEG4/ISO/AVC
Duration                    : 1 h 53 min
Bit rate                    : 1 500 kb/s
Width                       : 1 920 pixels
Height                      : 800 pixels
Display aspect ratio        : 2.40:1
Frame rate mode             : Constant
Frame rate                  : 23.976 (24000/1001) FPS
Color space                 : YUV
Chroma subsampling          : 4:2:0
Bit depth                   : 10 bits
Scan type                   : Progressive
Bits/(Pixel*Frame)          : 0.041
Stream size                 : 1.16 GiB (83%)
Title                       : The Meg (2018)
Writing library             : x264 core 155 r2901 7d0ff22
Encoding settings           : cabac=1 / ref=5 / deblock=1:-1:-1 / analyse=0x3:0x113 / me=hex / subme=8 / psy=1 / psy_rd=1.00:0.15 / mixed_ref=1 / me_range=16 / chroma_me=1 / trellis=2 / 8x8dct=1 / cqm=0 / deadzone=21,11 / fast_pskip=1 / chroma_qp_offset=-3 / threads=6 / lookahead_threads=1 / sliced_threads=0 / nr=0 / decimate=1 / interlaced=0 / bluray_compat=0 / constrained_intra=0 / bframes=3 / b_pyramid=2 / b_adapt=1 / b_bias=0 / direct=3 / weightb=1 / open_gop=0 / weightp=2 / keyint=240 / keyint_min=24 / scenecut=40 / intra_refresh=0 / rc_lookahead=50 / rc=2pass / mbtree=1 / bitrate=1500 / ratetol=1.0 / qcomp=0.60 / qpmin=0 / qpmax=81 / qpstep=4 / cplxblur=20.0 / qblur=0.5 / vbv_maxrate=150000 / vbv_bufsize=187500 / nal_hrd=none / filler=0 / ip_ratio=1.40 / aq=1:1.00
Language                    : English
Default                     : Yes
Forced                      : No
Color range                 : Limited
Color primaries             : BT.709
Transfer characteristics    : BT.709
Matrix coefficients         : BT.709
Statistics Tags Issue       : mkvmerge v28.2.0 ('The Awakening') 64-bit 2018-11-05 14:04:55 / mkvmerge v28.2.0 ('The Awakening') 64-bit 2018-11-05 14:04:55 / UTC 2018-11-05T10:19:08Z
FromStats_BitRate           : 1499030
FromStats_Duration          : 01:53:13.620000000
FromStats_FrameCount        : 162884
FromStats_StreamSize        : 1272980270

Audio
ID                          : 2
Format                      : AC-3
Format/Info                 : Audio Coding 3
Codec ID                    : A_AC3
Duration                    : 1 h 53 min
Bit rate mode               : Constant
Bit rate                    : 256 kb/s
Channel(s)                  : 6 channels
Channel positions           : Front: L C R, Side: L R, LFE
Sampling rate               : 48.0 kHz
Frame rate                  : 31.250 FPS (1536 SPF)
Bit depth                   : 16 bits
Compression mode            : Lossy
Stream size                 : 207 MiB (15%)
Title                       : The Meg (2018)
Language                    : English
Service kind                : Complete Main
Default                     : Yes
Forced                      : No
Statistics Tags Issue       : mkvmerge v28.2.0 ('The Awakening') 64-bit 2018-11-05 14:04:55 / mkvmerge v28.2.0 ('The Awakening') 64-bit 2018-11-05 14:04:55 / UTC 2018-11-05T10:19:08Z
FromStats_BitRate           : 256000
FromStats_Duration          : 01:53:13.600000000
FromStats_FrameCount        : 212300
FromStats_StreamSize        : 217395200

Text
ID                          : 3
Format                      : UTF-8
Codec ID                    : S_TEXT/UTF8
Codec ID/Info               : UTF-8 Plain Text
Title                       : MEGALODON: PREDATOR IZ DALEKIH DUBINA
Language                    : Serbian
Default                     : Yes
Forced                      : No
Statistics Tags Issue       : mkvmerge v28.2.0 ('The Awakening') 64-bit 2018-11-05 14:04:55 / mkvmerge v28.2.0 ('The Awakening') 64-bit 2018-11-05 14:04:55 / UTC 2018-11-05T10:19:08Z
FromStats_BitRate           : 47
FromStats_Duration          : 01:41:25.558000000
FromStats_FrameCount        : 1125
FromStats_StreamSize        : 36033





Ovde je skriveni sadržaj !!!
Ovaj sadržaj mogu videti samo registrovani članovi nakon zahvaljivanja na dugme HVALA




https://i.imgur.com/Q7VgfFw.jpg
The Meg (2018)

https://i.imgur.com/GNynHFG.jpg
The Meg (2018)
...sve će to narod pozlatiti