Nalazite se trenutno ovde:


*
MS Tim



    D O B R O D O S L I    ! ! !




* Pravila foruma

KODIRANJE LINKOVA
Sve linkove ili grupe linkova koji vode ka drugim sajtovima, a koje ostavljate u svojim porukama morate staviti izmedju odgovarajućih CODE tagova. Da bi linkovi bili vidljivi, treba kliknuti na dugme "Hvala" koje je obojeno plavim slovima, i nalazi se ispod avatara korisnika koji je postavio temu ili post.

DUPLIRANJE TEMA
Pre nego što želite da otvorite neku temu i postavite neke linkove...izvršite PRETRAGU. Izaberete željenu sekciju i namestite da Vam pretraga prikaže rezultate kao TEME, da biste imali sto pregledniji uvid u postavljene teme na forumu i da izbegnete da postavite duplikat.

POSTAVLJANJE TEMA
Da biste sebi i drugim članovima olakšali pretragu na forumu, potrebno je da temama date originalne nazive i godine proizvodnje.


Winter (2015)

Autor (Pročitano 474 puta)

0 Članovi i 1 gost pregledaju ovu temu.

Winter (2015)
« poslato: 30 Novembar 2016, 18:38:51 »
 

Van mreže lemonzoo

  • Zahvalnice
  • -Zahvalio: 110
  • -Pohvaljen: 3864
  • VIP
  • Aktivan član
  • *
  • 369
    Poruke
Winter (2015)






Ovde je skriveni sadržaj !!!
Ovaj sadržaj mogu videti samo registrovani članovi nakon zahvaljivanja na dugme HVALA





Sydney homicide detective Eve Winter (Rebecca Gibney) solves tough, high profile cases with cool intelligence, fighting bureaucracts, criminals and plenty of advances - unwanted and wanted - to catch her prey.

Winter.S01.REAL.DVDRip.x264-PFa

Citat
General
Unique ID : 212529088910800573633388400137612962522 (0x9FE39D176C6CE658B23876820B862ADA)
Complete name : /home/hd3/***/torrents/data/Winter.S01.REAL.DVDRip.x264-PFa/pfa-winter.s01e01.real.mkv
Format : Matroska
Format version : Version 4 / Version 2
File size : 273 MiB
Duration : 40mn 56s
Overall bit rate : 932 Kbps
Encoded date : UTC 2015-04-07 13:28:33
Writing application : mkvmerge v7.8.0 ('River Man') 64bit built on Mar 27 2015 16:31:37
Writing library : libebml v1.3.1 + libmatroska v1.4.2

Video
ID : 2
Format : AVC
Format/Info : Advanced Video Codec
Format profile : [email protected]
Format settings, CABAC : Yes
Format settings, ReFrames : 5 frames
Codec ID : V_MPEG4/ISO/AVC
Duration : 40mn 56s
Bit rate : 805 Kbps
Width : 720 pixels
Height : 404 pixels
Display aspect ratio : 16:9
Frame rate mode : Constant
Frame rate : 25.000 fps
Color space : YUV
Chroma subsampling : 4:2:0
Bit depth : 8 bits
Scan type : Progressive
Bits/(Pixel*Frame) : 0.111
Stream size : 236 MiB (86%)
Writing library : x264 core 146 r2538 121396c
Encoding settings : cabac=1 / ref=5 / deblock=1:0:0 / analyse=0x3:0x113 / me=umh / subme=8 / psy=1 / psy_rd=1.00:0.00 / mixed_ref=1 / me_range=16 / chroma_me=1 / trellis=1 / 8x8dct=1 / cqm=0 / deadzone=21,11 / fast_pskip=1 / chroma_qp_offset=-2 / threads=12 / lookahead_threads=2 / sliced_threads=0 / nr=0 / decimate=1 / interlaced=0 / bluray_compat=0 / constrained_intra=0 / bframes=3 / b_pyramid=2 / b_adapt=2 / b_bias=0 / direct=3 / weightb=1 / open_gop=0 / weightp=2 / keyint=250 / keyint_min=25 / scenecut=40 / intra_refresh=0 / rc_lookahead=50 / rc=crf / mbtree=1 / crf=19.0 / qcomp=0.60 / qpmin=0 / qpmax=69 / qpstep=4 / ip_ratio=1.40 / aq=1:1.00
Default : Yes
Forced : No

Audio
ID : 1
Format : AAC
Format/Info : Advanced Audio Codec
Format profile : LC
Codec ID : A_AAC
Duration : 40mn 55s
Bit rate : 125 Kbps
Channel(s) : 2 channels
Channel positions : Front: L R
Sampling rate : 48.0 KHz
Frame rate : 46.875 fps (1024 spf)
Compression mode : Lossy
Delay relative to video : 9ms
Stream size : 36.7 MiB (13%)
Default : Yes
Forced : No
Language : English

Menu
00:00:00.054 : en:00:00:00.054

https://i.postimg.cc/YCwb46BZ/frame3.jpg
Winter (2015)

https://i.postimg.cc/y8Xn0DVd/frame5.jpg
Winter (2015)

https://i.postimg.cc/SKSddmsG/frame6.jpg
Winter (2015)





Ovde je skriveni sadržaj !!!
Ovaj sadržaj mogu videti samo registrovani članovi nakon zahvaljivanja na dugme HVALA





Titlovi:



Ovde je skriveni sadržaj !!!
Ovaj sadržaj mogu videti samo registrovani članovi nakon zahvaljivanja na dugme HVALA


« Poslednja izmena: 13 Jun 2019, 16:40:12 od strane lemonzoo »
 


Odg: Winter (2015)
« Odgovor #1 poslato: 13 Jun 2019, 16:40:22 »
 

Van mreže lemonzoo

  • Zahvalnice
  • -Zahvalio: 110
  • -Pohvaljen: 3864
  • VIP
  • Aktivan član
  • *
  • 369
    Poruke
 nlnk