Nalazite se trenutno ovde:


*
MS Tim



    D O B R O D O S L I    ! ! !




* Pravila foruma

KODIRANJE LINKOVA
Sve linkove ili grupe linkova koji vode ka drugim sajtovima, a koje ostavljate u svojim porukama morate staviti izmedju odgovarajućih CODE tagova. Da bi linkovi bili vidljivi, treba kliknuti na dugme "Hvala" koje je obojeno plavim slovima, i nalazi se ispod avatara korisnika koji je postavio temu ili post.

DUPLIRANJE TEMA
Pre nego što želite da otvorite neku temu i postavite neke linkove...izvršite PRETRAGU. Izaberete željenu sekciju i namestite da Vam pretraga prikaže rezultate kao TEME, da biste imali sto pregledniji uvid u postavljene teme na forumu i da izbegnete da postavite duplikat.

POSTAVLJANJE TEMA
Da biste sebi i drugim članovima olakšali pretragu na forumu, potrebno je da temama date originalne nazive i godine proizvodnje.


The Fades (TV Series 2011)

Autor (Pročitano 1030 puta)

0 Članovi i 1 gost pregledaju ovu temu.

The Fades (TV Series 2011)
« poslato: 18 Novembar 2011, 14:31:29 »
 

Van mreže skylarkavenger

  • Zahvalnice
  • -Zahvalio: 0
  • -Pohvaljen: 845
  • Aktivan član
  • ******
  • 401
    Poruke
    • megasrbija
The Fades (TV Series 2011) + prevod

Kompletna serija sa uredjenim titlovim
Jedan link jedna epizoda. Titlovi zapakovani uz epizodu



http://img64.imageshack.us/img64/3616/desck.png
The Fades (TV Series 2011)




Ovde je skriveni sadržaj !!!
Ovaj sadržaj mogu videti samo registrovani članovi nakon zahvaljivanja na dugme HVALA



http://img266.imageshack.us/img266/3772/downloadvzh.png
The Fades (TV Series 2011)




Ovde je skriveni sadržaj !!!
Ovaj sadržaj mogu videti samo registrovani članovi nakon zahvaljivanja na dugme HVALA




Titlovi zapakovani uz svaku epizodu
 


Odg: The Fades (TV Series 2011)
« Odgovor #1 poslato: 26 Februar 2015, 18:14:56 »
 

Na mreži kuga53™

  • Zahvalnice
  • -Zahvalio: 55
  • -Pohvaljen: 118186
  • Global Moderator
  • Prijatelj foruma
  • *
  • 14675
    Poruke
  • "Ko ništa ne zna, ne razume ništa,bezvredan je."
The Fades (TV Series 2011)
http://www.bbcamerica.com/the-fades/files/2011/11/thefades_show_thumb_01_web.jpg
The Fades (TV Series 2011)




Ovde je skriveni sadržaj !!!
Ovaj sadržaj mogu videti samo registrovani članovi nakon zahvaljivanja na dugme HVALA


Ako planirate da kupite Uploaded i Uptobox Premium racun uradite to koristeci moj Reflink

http://ul.to/ref/3076984

https://uptobox.com/affiliate/372156

 

Odg: The Fades (TV Series 2011)
« Odgovor #2 poslato: 03 Jun 2018, 12:24:48 »
 

Van mreže lemonzoo

  • Zahvalnice
  • -Zahvalio: 110
  • -Pohvaljen: 4032
  • VIP
  • Aktivan član
  • *
  • 372
    Poruke
The Fades (2011)






Ovde je skriveni sadržaj !!!
Ovaj sadržaj mogu videti samo registrovani članovi nakon zahvaljivanja na dugme HVALA




Mladog Paula progone apokaliptični snovi koje nitko ne može objasniti. A kao da to nije dovoljno zastrašujuće, počinje viđati duhove mrtvih, poznate kao Iščezli koje ostali ljudi ne mogu vidjeti, namirisati, čuti ili dodirnuti. Kada ogorčeni i osvetoljubivi Polus otkrije način kako se ponovno vratiti među žive, na Paulu je da zaustavi njega i njegov plan da sve mrtve vrati u svijet i tako uništi ljudsku rasu.


The.Fades.S01.720p.BluRay.DTS2.0.x264-SbR

Citat
General
Unique ID : 235206128156747287354195661567182349972 (0xB0F30D72BD7C26B88484EFC8D8C1A694)
Complete name : The.Fades.S01.720p.BluRay.DTS2.0.x264-SbR/The.Fades.S01E01.720p.BluRay.DTS2.0.x264-SbR.mkv
Format : Matroska
Format version : Version 4 / Version 2
File size : 4.28 GiB
Duration : 56mn 41s
Overall bit rate : 10.8 Mbps
Encoded date : UTC 2014-05-01 16:39:39
Writing application : mkvmerge v6.9.1 ('Blue Panther') 64bit built on Apr 18 2014 18:23:38
Writing library : libebml v1.3.0 + libmatroska v1.4.1

Video
ID : 1
Format : AVC
Format/Info : Advanced Video Codec
Format profile : [email protected]
Format settings, CABAC : Yes
Format settings, ReFrames : 9 frames
Codec ID : V_MPEG4/ISO/AVC
Duration : 56mn 41s
Bit rate : 9 089 Kbps
Width : 1 280 pixels
Height : 720 pixels
Display aspect ratio : 16:9
Frame rate mode : Constant
Frame rate : 25.000 fps
Color space : YUV
Chroma subsampling : 4:2:0
Bit depth : 8 bits
Scan type : Progressive
Bits/(Pixel*Frame) : 0.395
Stream size : 3.60 GiB (84%)
Title : The Fades. Series 01 Episode 01 UK
Writing library : x264 core 142 r2431kMod ac76440
Encoding settings : cabac=1 / ref=9 / deblock=1:-3:-3 / analyse=0x3:0x133 / me=umh / subme=10 / psy=1 / fade_compensate=0.00 / psy_rd=1.00:0.00 / mixed_ref=1 / me_range=32 / chroma_me=1 / trellis=2 / 8x8dct=1 / cqm=0 / deadzone=21,11 / fast_pskip=1 / chroma_qp_offset=-2 / threads=16 / lookahead_threads=2 / sliced_threads=0 / nr=0 / decimate=1 / interlaced=0 / bluray_compat=0 / constrained_intra=0 / fgo=0 / bframes=7 / b_pyramid=2 / b_adapt=2 / b_bias=0 / direct=3 / weightb=1 / open_gop=0 / weightp=2 / keyint=250 / keyint_min=23 / scenecut=40 / intra_refresh=0 / rc_lookahead=40 / rc=crf / mbtree=0 / crf=17.0000 / qcomp=0.65 / qpmin=0 / qpmax=40 / qpstep=4 / vbv_maxrate=50000 / vbv_bufsize=50000 / crf_max=0.0 / nal_hrd=none / filler=0 / ip_ratio=1.25 / pb_ratio=1.25 / aq=1:0.60
Language : English
Default : Yes
Forced : No

Audio
ID : 2
Format : DTS
Format/Info : Digital Theater Systems
Mode : 16
Format settings, Endianness : Big
Codec ID : A_DTS
Duration : 56mn 41s
Bit rate mode : Constant
Bit rate : 1 509 Kbps
Channel(s) : 2 channels
Channel positions : Front: L R
Sampling rate : 48.0 KHz
Frame rate : 93.750 fps (512 spf)
Bit depth : 16 bits
Compression mode : Lossy
Stream size : 612 MiB (14%)
Title : DTS 2.0 @ 1509 kbps
Language : English
Default : Yes
Forced : No

Text
ID : 3
Format : UTF-8
Codec ID : S_TEXT/UTF8
Codec ID/Info : UTF-8 Plain Text
Language : English
Default : No
Forced : No

Menu
00:00:00.000 : en:00:00:00.000
00:08:36.840 : en:00:08:36.840
00:13:16.840 : en:00:13:16.840
00:21:17.079 : en:00:21:17.079
00:27:33.880 : en:00:27:33.880
00:36:28.400 : en:00:36:28.400
00:42:37.599 : en:00:42:37.599
00:47:34.960 : en:00:47:34.960
00:55:44.960 : en:00:55:44.960


https://abload.de/img/frame32usga.jpg
The Fades (TV Series 2011)


https://abload.de/img/frame52nsnm.jpg
The Fades (TV Series 2011)


https://abload.de/img/frame9u8p0m.jpg
The Fades (TV Series 2011)





Ovde je skriveni sadržaj !!!
Ovaj sadržaj mogu videti samo registrovani članovi nakon zahvaljivanja na dugme HVALA





Titlovi:



Ovde je skriveni sadržaj !!!
Ovaj sadržaj mogu videti samo registrovani članovi nakon zahvaljivanja na dugme HVALA