Nalazite se trenutno ovde:


*
MS Tim



    D O B R O D O S L I    ! ! !





The Lion King (Kralj Lavova, 2019)

Autor (Pročitano 1137 puta)

0 Članovi i 1 gost pregledaju ovu temu.

The Lion King (Kralj Lavova, 2019)
« poslato: 03 Septembar 2019, 22:51:13 »
 

Na mreži drsko™

  • Zahvalnice
  • -Zahvalio: 44
  • -Pohvaljen: 150150
  • Global Moderator
  • Prijatelj foruma
  • *
  • 9211
    Poruke
The Lion King 2019 DVDRip XviD AC3

https://ultraimg.com/images/2019/09/03/Z8Y7.jpg
The Lion King (Kralj Lavova, 2019)


 [info]

IMDb: The Lion King (2019)

https://i.postimg.cc/SscF6mcq/Lion-King-2019-DVDRip-Xvi-D-AC3-drsko.jpg
The Lion King (Kralj Lavova, 2019)


 DWNL
 mg.log




Ovde je skriveni sadržaj !!!
Ovaj sadržaj mogu videti samo registrovani članovi nakon zahvaljivanja na dugme HVALA


« Poslednja izmena: 10 Oktobar 2019, 21:34:01 od strane drsko™ »
 


Odg: The Lion King (Kralj Lavova, 2019)
« Odgovor #1 poslato: 11 Oktobar 2019, 14:07:06 »
 

Van mreže BingoZR™

  • Nisam ginekolog ali mogu da pogledam...
  • Zahvalnice
  • -Zahvalio: 814
  • -Pohvaljen: 36426
  • Root Admin
  • Prijatelj foruma
  • *
  • 5461
    Poruke
  • http://megasrbija.com
    • MegaSrbija
The Lion King (2019)

https://i.postimg.cc/q7sP53Dh/The-Lion-King-2019.jpg
The Lion King (Kralj Lavova, 2019)


https://www.imdb.com/title/tt6105098/

https://i.postimg.cc/vBXpQdsG/Lion-King-2019-DVDRip-x264-Mkv-Cage-mkv.png
The Lion King (Kralj Lavova, 2019)


 DWNL

 utbox




Ovde je skriveni sadržaj !!!
Ovaj sadržaj mogu videti samo registrovani članovi nakon zahvaljivanja na dugme HVALA


Svi moji fajlovi su arhivirani sa WinRAR 5.71, za raspakivanje preporučujem da koristite tu verziju-https://megasrbija.com/index.php?topic=342.30
 

Odg: The Lion King (Kralj Lavova, 2019)
« Odgovor #2 poslato: 12 Oktobar 2019, 23:07:34 »
 

Van mreže Wolf 13

  • Zahvalnice
  • -Zahvalio: 231
  • -Pohvaljen: 11241
  • VIP
  • Prijatelj foruma
  • *
  • 769
    Poruke
The Lion King (2019) 720p BRrip DD5.1 x264 by Wolf
(MKV)

https://i.imgur.com/t2EdEzx.jpg
The Lion King (Kralj Lavova, 2019)





Ovde je skriveni sadržaj !!!
Ovaj sadržaj mogu videti samo registrovani članovi nakon zahvaljivanja na dugme HVALA




Citat
General
Unique ID                   : 14475647439876041119678734592784962984 (0xAE3E8857D42549E7ECA2AC216D395A8)
Complete name               : The Lion King (2019) 720p BRrip DD5.1 x264 by Wolf.mkv
Format                      : Matroska
Format version              : Version 4
File size                   : 1.45 GiB
Duration                    : 1 h 58 min
Overall bit rate            : 1 757 kb/s
Encoded date                : UTC 2019-10-12 16:37:07
Writing application         : mkvmerge v38.0.0 ('The Silent Type') 64-bit
Writing library             : libebml v1.3.9 + libmatroska v1.5.2

Video
ID                          : 1
Format                      : AVC
Format/Info                 : Advanced Video Codec
Format profile              : [email protected]
Format settings             : CABAC / 8 Ref Frames
Format settings, CABAC      : Yes
Format settings, Reference  : 8 frames
Codec ID                    : V_MPEG4/ISO/AVC
Duration                    : 1 h 58 min
Bit rate                    : 1 500 kb/s
Width                       : 1 280 pixels
Height                      : 720 pixels
Display aspect ratio        : 16:9
Frame rate mode             : Constant
Frame rate                  : 23.976 (24000/1001) FPS
Color space                 : YUV
Chroma subsampling          : 4:2:0
Bit depth                   : 8 bits
Scan type                   : Progressive
Bits/(Pixel*Frame)          : 0.068
Stream size                 : 1.24 GiB (85%)
Title                       : The Lion King (2019)
Writing library             : x264 core 157 r2935 545de2f
Encoding settings           : cabac=1 / ref=8 / deblock=1:-1:-1 / analyse=0x3:0x133 / me=umh / subme=9 / psy=1 / psy_rd=1.00:0.15 / mixed_ref=1 / me_range=16 / chroma_me=1 / trellis=2 / 8x8dct=1 / cqm=0 / deadzone=21,11 / fast_pskip=1 / chroma_qp_offset=-3 / threads=6 / lookahead_threads=1 / sliced_threads=0 / nr=0 / decimate=1 / interlaced=0 / bluray_compat=0 / constrained_intra=0 / bframes=3 / b_pyramid=2 / b_adapt=2 / b_bias=0 / direct=3 / weightb=1 / open_gop=0 / weightp=2 / keyint=240 / keyint_min=24 / scenecut=40 / intra_refresh=0 / rc_lookahead=60 / rc=2pass / mbtree=1 / bitrate=1500 / ratetol=1.0 / qcomp=0.60 / qpmin=0 / qpmax=69 / qpstep=4 / cplxblur=20.0 / qblur=0.5 / vbv_maxrate=300000 / vbv_bufsize=300000 / nal_hrd=none / filler=0 / ip_ratio=1.40 / aq=1:1.00
Language                    : English
Default                     : Yes
Forced                      : No
Color range                 : Limited
Color primaries             : BT.709
Transfer characteristics    : BT.709
Matrix coefficients         : BT.709

Audio
ID                          : 2
Format                      : E-AC-3
Format/Info                 : Enhanced AC-3
Commercial name             : Dolby Digital Plus
Codec ID                    : A_EAC3
Duration                    : 1 h 58 min
Bit rate mode               : Constant
Bit rate                    : 256 kb/s
Channel(s)                  : 6 channels
Channel layout              : L R C LFE Ls Rs
Sampling rate               : 48.0 kHz
Frame rate                  : 31.250 FPS (1536 SPF)
Compression mode            : Lossy
Delay relative to video     : -5 ms
Stream size                 : 217 MiB (15%)
Title                       : The Lion King (2019)
Language                    : English
Service kind                : Complete Main
Default                     : Yes
Forced                      : No

Text
ID                          : 3
Format                      : UTF-8
Codec ID                    : S_TEXT/UTF8
Codec ID/Info               : UTF-8 Plain Text
Duration                    : 1 h 46 min
Bit rate                    : 43 b/s
Count of elements           : 956
Stream size                 : 33.8 KiB (0%)
Title                       : KRALJ LAVOVA
Language                    : Serbian
Default                     : Yes
Forced                      : No





Ovde je skriveni sadržaj !!!
Ovaj sadržaj mogu videti samo registrovani članovi nakon zahvaljivanja na dugme HVALA







Ovde je skriveni sadržaj !!!
Ovaj sadržaj mogu videti samo registrovani članovi nakon zahvaljivanja na dugme HVALA




https://i.imgur.com/DXcLOHU.png
The Lion King (Kralj Lavova, 2019)

https://i.imgur.com/daCassL.jpg
The Lion King (Kralj Lavova, 2019)
...sve će to narod pozlatiti

 

The Lion King (Краљ лавова, 2019)
« Odgovor #3 poslato: 20 Oktobar 2019, 21:00:34 »
 

Na mreži simark

  • Zahvalnice
  • -Zahvalio: 190
  • -Pohvaljen: 16345
  • VIP
  • Aktivan član
  • *
  • 163
    Poruke
Краљ лавова
на српском
The Lion King
https://i.imgur.com/dtTSB7F.jpg
The Lion King (Kralj Lavova, 2019)

Филмска верзија старог цртаног на српском језику. Звук је биоскопски
(осредњи и разумљив), снимак одличан више резолуције. Остављен и
енглески звук а фајл је остао мањи. Уживајте...


 [info]
Complete name : Краљ лавова  био - The.Lion.King.2019.720p.BluRay.890MB.x264.Dual-simark.mkv

File size                                : 891 MiB
Duration                                 : 1 h 58 min

Video
Codec ID                                 : V_MPEG4/ISO/AVC
Bit rate                                 : 843 kb/s
Width                                    : 1 280 pixels
Height                                   : 720 pixels
Display aspect ratio                     : 16:9
Frame rate                               : 23.976 (24000/1001) FPS
Stream size                              : 713 MiB (80%)

Audio #1
Codec ID                                 : A_AAC-2
Bit rate                                 : 123 kb/s
Channel(s)                               : 2 channels
Sampling rate                            : 44.1 kHz
Stream size                              : 95.1 MiB (11%)
Language                                 : Serbian

Audio #2
Codec ID                                 : A_AAC-2
Bit rate                                 : 96.0 kb/s
Channel(s)                               : 2 channels
Sampling rate                            : 48.0 kHz
Stream size                              : 81.2 MiB (9%)
Language                                 : English


 [download]



Ovde je skriveni sadržaj !!!
Ovaj sadržaj mogu videti samo registrovani članovi nakon zahvaljivanja na dugme HVALA




Нема шифре...