Nalazite se trenutno ovde:


*
MS Tim



    D O B R O D O S L I    ! ! !





Dumbo (Дамбо, 2019)

Autor (Pročitano 783 puta)

0 Članovi i 1 gost pregledaju ovu temu.

Dumbo (Дамбо, 2019)
« poslato: 23 Jun 2019, 23:35:09 »
 

Na mreži simark

  • Zahvalnice
  • -Zahvalio: 188
  • -Pohvaljen: 15139
  • VIP
  • Aktivan član
  • *
  • 154
    Poruke
Дамбо -на српском језику
Dumbo - serbian & english
https://i.imgur.com/gyiTYVX.jpg
Dumbo (Дамбо, 2019)

Нова верзија старе приче о симпатичном слончету. На српском језику
(биоскопски звук), у вишој резолуцији а остављен је и енглески звук. Уживајте...


 [info]
Complete name : Дамбо био- Dumbo.2019.720p.BluRay.888MB.x264.Dual-simark.mkv

File size                                : 888 MiB
Duration                                 : 1 h 51 min

Video
Codec ID                                 : V_MPEG4/ISO/AVC
Bit rate                                 : 896 kb/s
Width                                    : 1 280 pixels
Height                                   : 688 pixels
Display aspect ratio                     : 1.85:1
Frame rate                               : 23.976 (24000/1001) FPS
Stream size                              : 717 MiB (81%)

Audio #1
Codec ID                                 : A_AAC-2
Bit rate                                 : 123 kb/s
Channel(s)                               : 2 channels
Sampling rate                            : 44.1 kHz
Stream size                              : 91.7 MiB (10%)
Language                                 : Serbian

Audio #2
Codec ID                                 : A_AAC-2
Bit rate                                 : 96.0 kb/s
Channel(s)                               : 2 channels
Sampling rate                            : 48.0 kHz
Stream size                              : 77.5 MiB (9%)
Language                                 : English


 [download]



Ovde je skriveni sadržaj !!!
Ovaj sadržaj mogu videti samo registrovani članovi nakon zahvaljivanja na dugme HVALA





Ovde je skriveni sadržaj !!!
Ovaj sadržaj mogu videti samo registrovani članovi nakon zahvaljivanja na dugme HVALA




Нема шифре...

 


Odg: Dumbo (Дамбо, 2019)
« Odgovor #1 poslato: 26 Jun 2019, 10:14:07 »
 

Van mreže Leka Srbin

  • Zahvalnice
  • -Zahvalio: 54
  • -Pohvaljen: 57923
  • Global Moderator
  • Prijatelj foruma
  • *
  • 2898
    Poruke
    • Crtaci.org
https://i.imgur.com/8NJyhmy.jpg
Dumbo (Дамбо, 2019)


BR-Rip | mp4 | ENG Sinh | SRB Titl

 DWNL



Ovde je skriveni sadržaj !!!
Ovaj sadržaj mogu videti samo registrovani članovi nakon zahvaljivanja na dugme HVALA




https://i.imgur.com/Ajm7cck.png
Dumbo (Дамбо, 2019)
Ko ovde nije poludeo, taj nije normalan...