Nalazite se trenutno ovde:


*
MS Tim



    D O B R O D O S L I    ! ! !





Dumbo (Дамбо, 2019)

Autor (Pročitano 1260 puta)

0 Članovi i 1 gost pregledaju ovu temu.

Dumbo (Дамбо, 2019)
« poslato: 23 Jun 2019, 23:35:09 »
 

Na mreži simark

  • Zahvalnice
  • -Zahvalio: 189
  • -Pohvaljen: 16658
  • VIP
  • Aktivan član
  • *
  • 165
    Poruke
Дамбо- НОВ српски звук
Dumbo- serbian & english
https://i.imgur.com/gyiTYVX.jpg
Dumbo (Дамбо, 2019)

Нови српски одличан звук за причу о симпатичном слончету. Остављен
и енглески звук а фајл је мали и више резолуције као и пре. Уживајте...


 [info]
Complete name : Дамбо нов - Dumbo.2019.720p.BluRay.898MB.x264.Dual-simark.mkv

File size : 899 MiB
Duration : 1 h 51 min

Video
Codec ID : V_MPEG4/ISO/AVC
Bit rate : 896 kb/s
Width : 1 280 pixels
Height : 688 pixels
Display aspect ratio : 1.85:1
Frame rate : 23.976 (24000/1001) FPS
Stream size : 717 MiB (80%)

Audio #1
Codec ID : A_AAC-2
Bit rate : 127 kb/s
Channel(s) : 2 channels
Sampling rate : 48.0 kHz
Stream size : 102 MiB (11%)
Language : Serbian

Audio #2
Codec ID : A_AAC-2
Bit rate : 96.0 kb/s
Channel(s) : 2 channels
Sampling rate : 48.0 kHz
Stream size : 77.5 MiB (9%)
Language : English


 [download]



Ovde je skriveni sadržaj !!!
Ovaj sadržaj mogu videti samo registrovani članovi nakon zahvaljivanja na dugme HVALA





Ovde je skriveni sadržaj !!!
Ovaj sadržaj mogu videti samo registrovani članovi nakon zahvaljivanja na dugme HVALA




Нема шифре...

« Poslednja izmena: 02 Decembar 2019, 22:01:50 od strane simark »
 


Odg: Dumbo (Дамбо, 2019)
« Odgovor #1 poslato: 26 Jun 2019, 10:14:07 »
 

Van mreže Leka Srbin

  • Zahvalnice
  • -Zahvalio: 56
  • -Pohvaljen: 62684
  • Global Moderator
  • Prijatelj foruma
  • *
  • 3200
    Poruke
https://i.imgur.com/8NJyhmy.jpg
Dumbo (Дамбо, 2019)


BR-Rip | mp4 | ENG Sinh | SRB Titl

 DWNL



Ovde je skriveni sadržaj !!!
Ovaj sadržaj mogu videti samo registrovani članovi nakon zahvaljivanja na dugme HVALA


« Poslednja izmena: 01 Decembar 2019, 00:05:42 od strane Leka Srbin »
Ko ovde nije poludeo, taj nije normalan...
 

Odg: Dumbo (Дамбо, 2019)
« Odgovor #2 poslato: 02 Decembar 2019, 22:05:11 »
 

Na mreži simark

  • Zahvalnice
  • -Zahvalio: 189
  • -Pohvaljen: 16658
  • VIP
  • Aktivan član
  • *
  • 165
    Poruke


НОВИ линк за НОВИ српски звук у првом посту. Цео пост измењен.