Nalazite se trenutno ovde:


*
MS Tim



    D O B R O D O S L I    ! ! !




* Pravila foruma

KODIRANJE LINKOVA
Sve linkove ili grupe linkova koji vode ka drugim sajtovima, a koje ostavljate u svojim porukama morate staviti izmedju odgovarajućih CODE tagova. Da bi linkovi bili vidljivi, treba kliknuti na dugme "Hvala" koje je obojeno plavim slovima, i nalazi se ispod avatara korisnika koji je postavio temu ili post.

DUPLIRANJE TEMA
Pre nego što želite da otvorite neku temu i postavite neke linkove...izvršite PRETRAGU. Izaberete željenu sekciju i namestite da Vam pretraga prikaže rezultate kao TEME, da biste imali sto pregledniji uvid u postavljene teme na forumu i da izbegnete da postavite duplikat.

POSTAVLJANJE TEMA
Da biste sebi i drugim članovima olakšali pretragu na forumu, potrebno je da temama date originalne nazive i godine proizvodnje.


Il divo - La spettacolare vita di Giulio Andreotti (2008)

Autor (Pročitano 553 puta)

0 Članovi i 1 gost pregledaju ovu temu.

Il divo - La spettacolare vita di Giulio Andreotti (2008)
« poslato: 20 Jun 2019, 07:37:14 »
 

Na mreži lemonzoo

  • Zahvalnice
  • -Zahvalio: 111
  • -Pohvaljen: 4145
  • VIP
  • Aktivan član
  • *
  • 379
    Poruke
Il.Divo.2008.BluRay.576p.AC3.x264






Ovde je skriveni sadržaj !!!
Ovaj sadržaj mogu videti samo registrovani članovi nakon zahvaljivanja na dugme HVALA




Giulio Andreotti više je od četiri desetljeća sinonim za moć u Italiji. Početkom 90-ih godina, ta ravnodušna, ali lukava, neodređena, ali umirujuća ličnost čini se spremna preuzeti svoj sedmi premijerski mandat bez arogancije i bez poniznosti.
Budući da se približava sedamdesetoj, Andreotti je gerontokrat sa svim atributima Boga, koji se ne boji nikoga i ne zna što je strahopoštovanje, jer je navikao da ga vidi na čelima svih onih s kojima razgovara. Njegovo je zadovoljstvo moć, onakva kakvu on voli. Neokrnjen izlazi iz izbornih bitaka i terorističkih krvoprolića, a slabašne se optužbe odbijaju od njega. Sve dok mu rat ne objavi najsnažnija suprotna sila u Italiji – mafija.

Citat
General
Unique ID : 213281546895009711420636167221082269844 (0xA074882268976E49A462BB33BDCB2894)
Complete name : /home/hd3/***/torrents/data/Il.Divo.2008.BluRay.576p.AC3.x264.mkv
Format : Matroska
Format version : Version 4 / Version 2
File size : 2.78 GiB
Duration : 1h 57mn
Overall bit rate : 3 374 Kbps
Movie name : Il divo [2008] by Paolo Sorrentino
Encoded date : UTC 2018-03-15 15:24:59 / UTC 2018-03-15T03:23:39Z
Writing application : mkvmerge v18.0.0 ('Apricity') 64-bit
Writing library : libebml v1.3.5 + libmatroska v1.4.8 / Lavf55.12.0

Video
ID : 1
Format : AVC
Format/Info : Advanced Video Codec
Format profile : [email protected]
Format settings, CABAC : Yes
Format settings, ReFrames : 9 frames
Codec ID : V_MPEG4/ISO/AVC
Duration : 1h 57mn
Bit rate : 2 859 Kbps
Width : 1 024 pixels
Height : 436 pixels
Display aspect ratio : 2.35:1
Frame rate mode : Constant
Frame rate : 24.000 fps
Color space : YUV
Chroma subsampling : 4:2:0
Bit depth : 8 bits
Scan type : Progressive
Bits/(Pixel*Frame) : 0.267
Stream size : 2.35 GiB (85%)
Title : Il divo [2008] by Paolo Sorrentino
Writing library : x264 core 142 r2479 dd79a61
Encoding settings : cabac=1 / ref=9 / deblock=1:-3:-3 / analyse=0x3:0x133 / me=umh / subme=11 / psy=1 / psy_rd=1.00:0.00 / mixed_ref=1 / me_range=32 / chroma_me=1 / trellis=2 / 8x8dct=1 / cqm=0 / deadzone=21,11 / fast_pskip=0 / chroma_qp_offset=-2 / threads=6 / lookahead_threads=1 / sliced_threads=0 / nr=0 / decimate=1 / interlaced=0 / bluray_compat=0 / constrained_intra=0 / bframes=16 / b_pyramid=2 / b_adapt=2 / b_bias=0 / direct=3 / weightb=1 / open_gop=0 / weightp=2 / keyint=240 / keyint_min=24 / scenecut=40 / intra_refresh=0 / rc_lookahead=240 / rc=crf / mbtree=1 / crf=19.0 / qcomp=0.70 / qpmin=0 / qpmax=69 / qpstep=4 / ip_ratio=1.40 / aq=2:1.00
Language : Italian
Default : Yes
Forced : No
Color range : Limited
Color primaries : BT.709
Transfer characteristics : BT.709
Matrix coefficients : BT.709
Statistics Tags Issue : mkvmerge v18.0.0 ('Apricity') 64-bit 2018-03-15 15:24:59 / mkvmerge v18.0.0 ('Apricity') 64-bit 2018-03-15 15:24:59 / UTC 2018-03-15T03:23:39Z
FromStats_BitRate : 2866186
FromStats_Duration : 01:57:52.959000000
FromStats_FrameCount : 169751
FromStats_StreamSize : 2534052570

Audio
ID : 2
Format : AC-3
Format/Info : Audio Coding 3
Mode extension : CM (complete main)
Format settings, Endianness : Big
Codec ID : A_AC3
Duration : 1h 57mn
Bit rate mode : Constant
Bit rate : 448 Kbps
Channel(s) : 6 channels
Channel positions : Front: L C R, Side: L R, LFE
Sampling rate : 48.0 KHz
Frame rate : 31.250 fps (1536 spf)
Compression mode : Lossy
Delay relative to video : -83ms
Stream size : 378 MiB (13%)
Title : Italian
Language : Italian
Default : Yes
Forced : No
Statistics Tags Issue : mkvmerge v18.0.0 ('Apricity') 64-bit 2018-03-15 15:24:59 / mkvmerge v18.0.0 ('Apricity') 64-bit 2018-03-15 15:24:59 / UTC 2018-03-15T03:23:39Z
FromStats_BitRate : 448000
FromStats_Duration : 01:57:52.992000000
FromStats_FrameCount : 221031
FromStats_StreamSize : 396087552

Text #1
ID : 3
Format : UTF-8
Codec ID : S_TEXT/UTF8
Codec ID/Info : UTF-8 Plain Text
Title : English SRT
Language : English
Default : Yes
Forced : No
Statistics Tags Issue : mkvmerge v18.0.0 ('Apricity') 64-bit 2018-03-15 15:24:59 / mkvmerge v18.0.0 ('Apricity') 64-bit 2018-03-15 15:24:59 / UTC 2018-03-15T03:23:39Z
FromStats_BitRate : 54
FromStats_Duration : 01:47:25.827000000
FromStats_FrameCount : 1048
FromStats_StreamSize : 43918

Text #2
ID : 4
Format : PGS
Codec ID : S_HDMV/PGS
Codec ID/Info : Picture based subtitle format used on BDs/HD-DVDs
Title : English PGS
Language : English
Default : No
Forced : No
Statistics Tags Issue : mkvmerge v18.0.0 ('Apricity') 64-bit 2018-03-15 15:24:59 / mkvmerge v18.0.0 ('Apricity') 64-bit 2018-03-15 15:24:59 / UTC 2018-03-15T03:23:39Z
FromStats_BitRate : 31268
FromStats_Duration : 01:56:53.167000000
FromStats_FrameCount : 2102
FromStats_StreamSize : 27411536

Text #3
ID : 5
Format : PGS
Codec ID : S_HDMV/PGS
Codec ID/Info : Picture based subtitle format used on BDs/HD-DVDs
Title : Italian PGS
Language : Italian
Default : No
Forced : No
Statistics Tags Issue : mkvmerge v18.0.0 ('Apricity') 64-bit 2018-03-15 15:24:59 / mkvmerge v18.0.0 ('Apricity') 64-bit 2018-03-15 15:24:59 / UTC 2018-03-15T03:23:39Z
FromStats_BitRate : 27822
FromStats_Duration : 01:55:18.000000000
FromStats_FrameCount : 1750
FromStats_StreamSize : 24059520

Menu
00:00:00.000 : :Chapter 1
00:09:55.416 : :Chapter 2
00:21:17.791 : :Chapter 3
00:31:43.791 : :Chapter 4
00:41:55.791 : :Chapter 5
00:51:35.791 : :Chapter 6
01:03:21.666 : :Chapter 7
01:11:50.541 : :Chapter 8
01:24:56.791 : :Chapter 9
01:37:47.708 : :Chapter 10
01:42:31.208 : :Chapter 11
01:47:06.333 : :Chapter 12


https://i.postimg.cc/DZK2bQ0Z/frame2.jpg
Il divo - La spettacolare vita di Giulio Andreotti (2008)


https://i.postimg.cc/sX93PBGJ/frame3.jpg
Il divo - La spettacolare vita di Giulio Andreotti (2008)


https://i.postimg.cc/j2xtMszY/frame9.jpg
Il divo - La spettacolare vita di Giulio Andreotti (2008)






Ovde je skriveni sadržaj !!!
Ovaj sadržaj mogu videti samo registrovani članovi nakon zahvaljivanja na dugme HVALA