Nalazite se trenutno ovde:


*
MS Tim



    D O B R O D O S L I    ! ! !




* Pravila foruma

KODIRANJE LINKOVA
Sve linkove ili grupe linkova koji vode ka drugim sajtovima, a koje ostavljate u svojim porukama morate staviti izmedju odgovarajućih CODE tagova. Da bi linkovi bili vidljivi, treba kliknuti na dugme "Hvala" koje je obojeno plavim slovima, i nalazi se ispod avatara korisnika koji je postavio temu ili post.

DUPLIRANJE TEMA
Pre nego što želite da otvorite neku temu i postavite neke linkove...izvršite PRETRAGU. Izaberete željenu sekciju i namestite da Vam pretraga prikaže rezultate kao TEME, da biste imali sto pregledniji uvid u postavljene teme na forumu i da izbegnete da postavite duplikat.

POSTAVLJANJE TEMA
Da biste sebi i drugim članovima olakšali pretragu na forumu, potrebno je da temama date originalne nazive i godine proizvodnje.


Urutora 6-kyodai tai kaijû gundan (1974) AKA Hanuman vs. 7 Ultraman

Autor (Pročitano 463 puta)

0 Članovi i 1 gost pregledaju ovu temu.

 

Na mreži lemonzoo

  • Zahvalnice
  • -Zahvalio: 110
  • -Pohvaljen: 4107
  • VIP
  • Aktivan član
  • *
  • 375
    Poruke
Hanuman.vs.7.Ultraman.1974.AAC.x264
Urutora 6-kyodai tai kaijû gundan (1974) AKA Hanuman vs. 7 Ultraman AKA The 6 Ultra Brothers vs. the Monster Army






Ovde je skriveni sadržaj !!!
Ovaj sadržaj mogu videti samo registrovani članovi nakon zahvaljivanja na dugme HVALA




The Hindu god Hanuman teams up with Ultraman and his brethren against familiar Ultra-foes in this rare Ultraman movie co-produced in Thailand.

Citat
General
Unique ID                   : 143900111183515480879883744269719188038 (0x6C42273F839D1FA9F7C3D5D6CC423246)
Complete name               : C:\Users\***\Videos\Hanuman.vs.7.Ultraman.1974.AAC.x264.mkv
Format                      : Matroska
Format version              : Version 4 / Version 2
File size                   : 1.72 GiB
Duration                    : 1 h 43 min
Overall bit rate            : 2 380 kb/s
Encoded date                : UTC 2018-12-07 12:01:07
Writing application         : mkvmerge v23.0.0 ('The Bride Said No') 64-bit
Writing library             : libebml v1.3.6 + libmatroska v1.4.9

Video
ID                          : 1
Format                      : AVC
Format/Info                 : Advanced Video Codec
Format profile              : [email protected]
Format settings             : CABAC / 5 Ref Frames
Format settings, CABAC      : Yes
Format settings, ReFrames   : 5 frames
Codec ID                    : V_MPEG4/ISO/AVC
Duration                    : 1 h 43 min
Bit rate                    : 2 250 kb/s
Width                       : 720 pixels
Height                      : 360 pixels
Display aspect ratio        : 2.133
Original display aspect rat : 2.134
Frame rate mode             : Constant
Frame rate                  : 23.976 (24000/1001) FPS
Color space                 : YUV
Chroma subsampling          : 4:2:0
Bit depth                   : 8 bits
Scan type                   : Progressive
Bits/(Pixel*Frame)          : 0.362
Stream size                 : 1.62 GiB (95%)
Writing library             : x264 core 146 r2538 121396c
Encoding settings           : cabac=1 / ref=5 / deblock=1:-1:-1 / analyse=0x3:0x113 / me=umh / subme=8 / psy=1 / psy_rd=1.00:0.15 / mixed_ref=1 / me_range=16 / chroma_me=1 / trellis=1 / 8x8dct=1 / cqm=0 / deadzone=21,11 / fast_pskip=1 / chroma_qp_offset=-3 / threads=3 / lookahead_threads=1 / sliced_threads=0 / nr=0 / decimate=1 / interlaced=0 / bluray_compat=0 / constrained_intra=0 / bframes=3 / b_pyramid=2 / b_adapt=2 / b_bias=0 / direct=3 / weightb=1 / open_gop=0 / weightp=2 / keyint=240 / keyint_min=23 / scenecut=40 / intra_refresh=0 / rc_lookahead=50 / rc=2pass / mbtree=1 / bitrate=2250 / ratetol=1.0 / qcomp=0.60 / qpmin=0 / qpmax=69 / qpstep=4 / cplxblur=20.0 / qblur=0.5 / vbv_maxrate=62500 / vbv_bufsize=78125 / nal_hrd=none / filler=0 / ip_ratio=1.40 / aq=1:1.00
Language                    : English
Default                     : Yes
Forced                      : No

Audio
ID                          : 2
Format                      : AAC
Format/Info                 : Advanced Audio Codec
Format profile              : LC
Codec ID                    : A_AAC-2
Duration                    : 1 h 43 min
Bit rate                    : 128 kb/s
Channel(s)                  : 2 channels
Channel positions           : Front: L R
Sampling rate               : 48.0 kHz
Frame rate                  : 46.875 FPS (1024 SPF)
Compression mode            : Lossy
Delay relative to video     : -83 ms
Stream size                 : 94.6 MiB (5%)
Language                    : Thai
Default                     : Yes
Forced                      : No

Text
ID                          : 3
Format                      : UTF-8
Codec ID                    : S_TEXT/UTF8
Codec ID/Info               : UTF-8 Plain Text
Duration                    : 1 h 42 min
Bit rate                    : 17 b/s
Count of elements           : 490
Stream size                 : 13.2 KiB (0%)
Language                    : English
Default                     : Yes
Forced                      : No


https://i.postimg.cc/cJVjs3Yc/Hanuman-vs-7-Ultraman-1974-AAC-x264-mkv-thumbs.jpg
Urutora 6-kyodai tai kaijû gundan (1974) AKA Hanuman vs. 7 Ultraman






Ovde je skriveni sadržaj !!!
Ovaj sadržaj mogu videti samo registrovani članovi nakon zahvaljivanja na dugme HVALA