Nalazite se trenutno ovde:


*
MS Tim



    D O B R O D O S L I    ! ! !




* Pravila foruma

KODIRANJE LINKOVA
Sve linkove ili grupe linkova koji vode ka drugim sajtovima, a koje ostavljate u svojim porukama morate staviti izmedju odgovarajućih CODE tagova. Da bi linkovi bili vidljivi, treba kliknuti na dugme "Hvala" koje je obojeno plavim slovima, i nalazi se ispod avatara korisnika koji je postavio temu ili post.

DUPLIRANJE TEMA
Pre nego što želite da otvorite neku temu i postavite neke linkove...izvršite PRETRAGU. Izaberete željenu sekciju i namestite da Vam pretraga prikaže rezultate kao TEME, da biste imali sto pregledniji uvid u postavljene teme na forumu i da izbegnete da postavite duplikat.

POSTAVLJANJE TEMA
Da biste sebi i drugim članovima olakšali pretragu na forumu, potrebno je da temama date originalne nazive i godine proizvodnje.


El imperio de la fortuna (1986) AKA The Realm of Fortune

Autor (Pročitano 172 puta)

0 Članovi i 1 gost pregledaju ovu temu.

El imperio de la fortuna (1986) AKA The Realm of Fortune
« poslato: 12 Jun 2019, 07:23:18 »
 

Na mreži lemonzoo

  • Zahvalnice
  • -Zahvalio: 110
  • -Pohvaljen: 4125
  • VIP
  • Aktivan član
  • *
  • 376
    Poruke
El.imperio.de.la.fortuna.1986.Arturo.Ripstein.1080p.WEBRip.AAC.x264.[opt.eng.subs].RIYE






Ovde je skriveni sadržaj !!!
Ovaj sadržaj mogu videti samo registrovani članovi nakon zahvaljivanja na dugme HVALA




Siromašni i hendikepirani čovjek živi u meksičkome gradiću sa svojom majkom. Posao mu je da najavljuje vijesti po cijelome gradu (Svećenik je izgubio svoju kraju, ako je tko vidi...). Voli borbe pijetlova. Jednoga dana, s namjerom da mu pokloni nešto za jelo, čovjek mu pokloni gubitničkog pijetla, no umjesto toga, on se pobrine za životinju, koja kasnije postane pobjednička. To mu počne zarađivati novce. Lijepa pjevačica La Caponera, koja ga je ranije izbjegavala, sada koristi svoj šarm da bi dobila besplatna pića. On misli kako mu ona donosi sreću pa je oženi kad se obogati. La Caponera se nakon udaje odvoji od šou-biznisa te zbog toga postane nesretna...

Citat
General
Unique ID                                : 38136781985140556503234824263425127576 (0x1CB0E085BE85D617EECFF1CBC314F498)
Complete name                            : /home/hd3/***/torrents/data/El.imperio.de.la.fortuna.1986.Arturo.Ripstein.1080p.WEBRip.AAC.x264.[opt.eng.subs].RIYE.mkv
Format                                   : Matroska
Format version                           : Version 4 / Version 2
File size                                : 2.85 GiB
Duration                                 : 2h 11mn
Overall bit rate                         : 3 104 Kbps
Encoded date                             : UTC 2019-02-26 18:33:54
Writing application                      : mkvmerge v23.0.0 ('The Bride Said No') 64-bit
Writing library                          : libebml v1.3.6 + libmatroska v1.4.9

Video
ID                                       : 1
Format                                   : AVC
Format/Info                              : Advanced Video Codec
Format profile                           : [email protected]
Format settings, CABAC                   : Yes
Format settings, ReFrames                : 4 frames
Codec ID                                 : V_MPEG4/ISO/AVC
Duration                                 : 2h 11mn
Bit rate                                 : 2 789 Kbps
Width                                    : 1 920 pixels
Height                                   : 1 080 pixels
Display aspect ratio                     : 16:9
Frame rate mode                          : Constant
Frame rate                               : 24.000 fps
Color space                              : YUV
Chroma subsampling                       : 4:2:0
Bit depth                                : 8 bits
Scan type                                : Progressive
Bits/(Pixel*Frame)                       : 0.056
Stream size                              : 2.56 GiB (90%)
Writing library                          : Zencoder Video Encoding System
Default                                  : Yes
Forced                                   : No
Color range                              : Limited
Color primaries                          : BT.709
Transfer characteristics                 : BT.709
Matrix coefficients                      : BT.709

Audio
ID                                       : 2
Format                                   : AAC
Format/Info                              : Advanced Audio Codec
Format profile                           : LC
Codec ID                                 : A_AAC
Duration                                 : 2h 11mn
Bit rate                                 : 313 Kbps
Channel(s)                               : 2 channels
Channel positions                        : Front: L R
Sampling rate                            : 48.0 KHz
Frame rate                               : 46.875 fps (1024 spf)
Compression mode                         : Lossy
Delay relative to video                  : -54ms
Stream size                              : 295 MiB (10%)
Default                                  : Yes
Forced                                   : No
Language                                 : Spanish

Text
ID                                       : 3
Format                                   : UTF-8
Codec ID                                 : S_TEXT/UTF8
Codec ID/Info                            : UTF-8 Plain Text
Duration                                 : 2h 8mn
Bit rate                                 : 34 bps
Count of elements                        : 1173
Stream size                              : 32.4 KiB (0%)
Language                                 : English
Default                                  : Yes
Forced                                   : No


https://i.postimg.cc/qJTwTbJn/frame4.jpg
El imperio de la fortuna (1986) AKA The Realm of Fortune

https://i.postimg.cc/gd4DCHfX/frame11.jpg
El imperio de la fortuna (1986) AKA The Realm of Fortune

https://i.postimg.cc/JMnqMBLT/frame13.jpg
El imperio de la fortuna (1986) AKA The Realm of Fortune






Ovde je skriveni sadržaj !!!
Ovaj sadržaj mogu videti samo registrovani članovi nakon zahvaljivanja na dugme HVALA




Titl:



Ovde je skriveni sadržaj !!!
Ovaj sadržaj mogu videti samo registrovani članovi nakon zahvaljivanja na dugme HVALA