Nalazite se trenutno ovde:


*
MS Tim



    D O B R O D O S L I    ! ! !




* Pravila foruma

KODIRANJE LINKOVA
Sve linkove ili grupe linkova koji vode ka drugim sajtovima, a koje ostavljate u svojim porukama morate staviti izmedju odgovarajućih CODE tagova. Da bi linkovi bili vidljivi, treba kliknuti na dugme "Hvala" koje je obojeno plavim slovima, i nalazi se ispod avatara korisnika koji je postavio temu ili post.

DUPLIRANJE TEMA
Pre nego što želite da otvorite neku temu i postavite neke linkove...izvršite PRETRAGU. Izaberete željenu sekciju i namestite da Vam pretraga prikaže rezultate kao TEME, da biste imali sto pregledniji uvid u postavljene teme na forumu i da izbegnete da postavite duplikat.

POSTAVLJANJE TEMA
Da biste sebi i drugim članovima olakšali pretragu na forumu, potrebno je da temama date originalne nazive i godine proizvodnje.


Un marinaio e mezzo (1985) AKA Devil's Crude

Autor (Pročitano 496 puta)

0 Članovi i 1 gost pregledaju ovu temu.

Un marinaio e mezzo (1985) AKA Devil's Crude
« poslato: 11 Jun 2019, 07:36:41 »
 

Na mreži lemonzoo

  • Zahvalnice
  • -Zahvalio: 111
  • -Pohvaljen: 4145
  • VIP
  • Aktivan član
  • *
  • 379
    Poruke
Un marinaio e mezzo (1985) AKA Devil's Crude VHSRip [English]

https://i.postimg.cc/gjtYTpWF/Un-marinaio-e-mezzo-1985.jpg
Un marinaio e mezzo (1985) AKA Devil's Crude





Ovde je skriveni sadržaj !!!
Ovaj sadržaj mogu videti samo registrovani članovi nakon zahvaljivanja na dugme HVALA




Nick has been living as a merchant seaman, sailing everywhere with his pet pelican. While off the coast of South America, his boat is capsized by an oil tanker. In fury, he gets back ashore, seeking the oil company's board of directors, and says that he wants to be repaid. However, he is met by surprising hostility. He also meets a twelve-year-old boy who, it turns out, is the heir to the oil company, after his grandfather allegedly died. Nick agrees to protect the boy and, not very surprisingly, they soon find that Grandpa isn't at all dead, but merely hiding in the wilderness (allegedly the Colombian Amazon). Soon they discover that there is a conspiracy of greed, and after an action-packed climax, Nick acquires a new boat.

Citat
General
Complete name : /home/hd3/***/torrents/data/devils_crude_VHSrip_CG.avi
Format : AVI
Format/Info : Audio Video Interleave
File size : 950 MiB
Duration : 1h 25mn
Overall bit rate : 1 550 Kbps
Writing application : VirtualDubMod 1.5.4.1 (build 2178/release)
Writing library : VirtualDubMod build 2178/release

Video
ID : 0
Format : MPEG-4 Visual
Format profile : Advanced [email protected]
Format settings, BVOP : 1
Format settings, QPel : No
Format settings, GMC : No warppoints
Format settings, Matrix : Custom
Codec ID : XVID
Codec ID/Hint : XviD
Duration : 1h 25mn
Bit rate : 1 319 Kbps
Width : 352 pixels
Height : 272 pixels
Display aspect ratio : 1.294
Frame rate : 23.976 (23976/1000) fps
Color space : YUV
Chroma subsampling : 4:2:0
Bit depth : 8 bits
Scan type : Progressive
Compression mode : Lossy
Bits/(Pixel*Frame) : 0.575
Stream size : 808 MiB (85%)
Writing library : XviD 1.2.1 (UTC 2008-12-04)

Audio
ID : 1
Format : MPEG Audio
Format version : Version 1
Format profile : Layer 2
Codec ID : 50
Duration : 1h 25mn
Bit rate mode : Constant
Bit rate : 224 Kbps
Channel(s) : 2 channels
Sampling rate : 44.1 KHz
Compression mode : Lossy
Delay relative to video : 65ms
Stream size : 137 MiB (14%)
Alignment : Split accross interleaves
Interleave, duration : 83 ms (2.00 video frames)
Interleave, preload duration : 500 ms
Languague : English










Ovde je skriveni sadržaj !!!
Ovaj sadržaj mogu videti samo registrovani članovi nakon zahvaljivanja na dugme HVALA