MegaSrbija.com

Download Area - Pored pretrage, koristite i spiskove => Filmovi i Serije => Strani Filmovi => Temu započeo: lemonzoo 13 Jun 2019, 10:42:42

Naslov: Könnyü vér (1990) AKA Fast and Loose
Poruka od: lemonzoo 13 Jun 2019, 10:42:42
Könnyü vér (1990) AKA Fast and Loose

(https://i.postimg.cc/Dy4x828w/K-nny-v-r-1990.jpg)




Ovde je skriveni sadržaj !!!
Ovaj sadržaj mogu videti samo registrovani članovi nakon zahvaljivanja na dugme HVALA




Margo and Ildi are act models at the College of Fine Arts, otherwise they work on the street. Margo's boyfriend unexpectedly gets out of prison and follows the two girls everywhere. Meanwhile, the German-speaking Danubius...

Citat
General
Complete name : /home/hd3/***/torrents/data/Könnyü Vér - FAST AND LOOSE/FAST AND LOOSE (1989).avi
Format : AVI
Format/Info : Audio Video Interleave
File size : 704 MiB
Duration : 1h 22mn
Overall bit rate : 1 187 Kbps
Writing application : Nandub v1.0rc2
Writing library : Nandub build 1853/release

Video
ID : 0
Format : MPEG-4 Visual
Format profile : Advanced [email protected]
Format settings, BVOP : No
Format settings, QPel : No
Format settings, GMC : No warppoints
Format settings, Matrix : Default (H.263)
Codec ID : XVID
Codec ID/Hint : XviD
Duration : 1h 22mn
Bit rate : 985 Kbps
Width : 640 pixels
Height : 480 pixels
Display aspect ratio : 4:3
Frame rate : 25.000 fps
Color space : YUV
Chroma subsampling : 4:2:0
Bit depth : 8 bits
Scan type : Progressive
Compression mode : Lossy
Bits/(Pixel*Frame) : 0.128
Stream size : 585 MiB (83%)
Writing library : XviD 64

Audio
ID : 1
Format : AC-3
Format/Info : Audio Coding 3
Mode extension : CM (complete main)
Format settings, Endianness : Big
Codec ID : 2000
Duration : 1h 22mn
Bit rate mode : Constant
Bit rate : 192 Kbps
Channel(s) : 2 channels
Channel positions : Front: L R
Sampling rate : 48.0 KHz
Frame rate : 31.250 fps (1536 spf)
Compression mode : Lossy
Stream size : 114 MiB (16%)
Alignment : Split accross interleaves
Interleave, duration : 40 ms (1.00 video frame)
Interleave, preload duration : 500 ms
Languague : Hungarian

(https://i.postimg.cc/76BKTh3f/frame0.jpg)
(https://i.postimg.cc/8c9wtYnG/frame3.jpg)
(https://i.postimg.cc/44S8fK40/frame9.jpg)





Ovde je skriveni sadržaj !!!
Ovaj sadržaj mogu videti samo registrovani članovi nakon zahvaljivanja na dugme HVALA




English subtitle:



Ovde je skriveni sadržaj !!!
Ovaj sadržaj mogu videti samo registrovani članovi nakon zahvaljivanja na dugme HVALA