Nalazite se trenutno ovde:

*
MS Tim



    D O B R O    D O S L I    ! ! !




* Pravila foruma

KODIRANJE LINKOVA
Sve linkove ili grupe linkova koji vode ka drugim sajtovima, a koje ostavljate u svojim porukama morate staviti izmedju odgovarajućih CODE tagova. Da bi linkovi bili vidljivi, treba kliknuti na dugme "Hvala" koje je obojeno plavim slovima, i nalazi se ispod avatara korisnika koji je postavio temu ili post.

DUPLIRANJE TEMA
Pre nego što želite da otvorite neku temu i postavite neke linkove...izvršite PRETRAGU. Izaberete željenu sekciju i namestite da Vam pretraga prikaže rezultate kao TEME, da biste imali sto pregledniji uvid u postavljene teme na forumu i da izbegnete da postavite duplikat.

POSTAVLJANJE TEMA
Da biste sebi i drugim članovima olakšali pretragu na forumu, potrebno je da temama date originalne nazive i godine proizvodnje.


Red Sparrow (2018)

Autor (Pročitano 998 puta)

0 Članovi i 1 gost pregledaju ovu temu.

Red Sparrow (2018)
« poslato: 13 Mart 2018, 21:00:31 »
 

Na mreži drsko™

  • Zahvalnice
  • -Zahvalio: 36
  • -Pohvaljen: 115470
  • Global Moderator
  • Prijatelj foruma
  • *
  • 8302
    Poruke
Red Sparrow (2018)  CROOP HDRip XviD AC3

https://s7.postimg.cc/fe4lsfwzv/image.jpg
Red Sparrow (2018)


 [info]

IMDb: Red Sparrow (2018)



https://s7.postimg.cc/5426t4et7/Red.Sparrow.2018_CROOP.HDRip.Xvi_D.AC3-drsko.jpg
Red Sparrow (2018)


 [download]
 mg.log



Ovde je skriveni sadržaj !!!
Ovaj sadržaj mogu videti samo registrovani članovi nakon zahvaljivanja na dugme HVALA



 utbox



Ovde je skriveni sadržaj !!!
Ovaj sadržaj mogu videti samo registrovani članovi nakon zahvaljivanja na dugme HVALA



« Poslednja izmena: 16 April 2018, 20:29:33 od strane drsko™ »
 


Odg: Red Sparrow (2018)
« Odgovor #1 poslato: 15 April 2018, 22:20:16 »
 

Na mreži drsko™

  • Zahvalnice
  • -Zahvalio: 36
  • -Pohvaljen: 115470
  • Global Moderator
  • Prijatelj foruma
  • *
  • 8302
    Poruke
RED SPARROW 2018 BDRip x264



 [info]

IMDb: Crveni vrabac (2018)



https://s9.postimg.cc/jica1v6wv/Red_Sparrow_2018.bdrip.x264-drsko.jpg
Red Sparrow (2018)


 [download]
 mg.log



Ovde je skriveni sadržaj !!!
Ovaj sadržaj mogu videti samo registrovani članovi nakon zahvaljivanja na dugme HVALA



« Poslednja izmena: 09 Maj 2018, 22:12:43 od strane drsko™ »
 

Odg: Red Sparrow (2018)
« Odgovor #2 poslato: 09 Maj 2018, 20:06:02 »
 

Na mreži drsko™

  • Zahvalnice
  • -Zahvalio: 36
  • -Pohvaljen: 115470
  • Global Moderator
  • Prijatelj foruma
  • *
  • 8302
    Poruke
n-l
 

Odg: Red Sparrow (2018)
« Odgovor #3 poslato: 11 Maj 2018, 19:22:23 »
 

Van mreže Wolf 13

  • Zahvalnice
  • -Zahvalio: 172
  • -Pohvaljen: 7027
  • VIP
  • Veteran
  • *
  • 692
    Poruke
Red Sparrow (2018)
(MKV)

https://i.imgur.com/t6yt3sI.jpg
Red Sparrow (2018)


Red.Sparrow.2018.720p.BRrip.x264.by.Wolf




Ovde je skriveni sadržaj !!!
Ovaj sadržaj mogu videti samo registrovani članovi nakon zahvaljivanja na dugme HVALA




Citat
General
Unique ID                   : 83247905041051688933888117051987006961 (0x3EA0F69BA7AD6AA24857F152B31B15F1)
Complete name               : Red.Sparrow.2018.720p.BRrip.x264.by.Wolf.mkv
Format                      : Matroska
Format version              : Version 4 / Version 2
File size                   : 1.72 GiB
Duration                    : 2 h 20 min
Overall bit rate            : 1 757 kb/s
Encoded date                : UTC 2018-05-11 12:15:19 / UTC 2018-05-11T07:14:49Z
Writing application         : mkvmerge v19.0.0 ('Brave Captain') 64-bit
Writing library             : libebml v1.3.5 + libmatroska v1.4.8 / Lavf57.7.2

Video
ID                          : 1
Format                      : AVC
Format/Info                 : Advanced Video Codec
Format profile              : [email protected]
Format settings             : CABAC / 4 Ref Frames
Format settings, CABAC      : Yes
Format settings, ReFrames   : 4 frames
Codec ID                    : V_MPEG4/ISO/AVC
Duration                    : 2 h 20 min
Bit rate                    : 1 500 kb/s
Width                       : 1 280 pixels
Height                      : 536 pixels
Display aspect ratio        : 2.40:1
Frame rate mode             : Constant
Frame rate                  : 23.976 (24000/1001) FPS
Color space                 : YUV
Chroma subsampling          : 4:2:0
Bit depth                   : 8 bits
Scan type                   : Progressive
Bits/(Pixel*Frame)          : 0.091
Stream size                 : 1.44 GiB (83%)
Title                       : Red Sparrow (2018)
Writing library             : x264 core 148 r2708 86b7198
Encoding settings           : cabac=1 / ref=2 / deblock=1:0:0 / analyse=0x3:0x113 / me=hex / subme=4 / psy=1 / psy_rd=1.00:0.00 / mixed_ref=0 / me_range=16 / chroma_me=1 / trellis=1 / 8x8dct=1 / cqm=0 / deadzone=21,11 / fast_pskip=1 / chroma_qp_offset=0 / threads=3 / lookahead_threads=1 / sliced_threads=0 / nr=0 / decimate=1 / interlaced=0 / bluray_compat=0 / constrained_intra=0 / bframes=3 / b_pyramid=2 / b_adapt=1 / b_bias=0 / direct=1 / weightb=1 / open_gop=0 / weightp=1 / keyint=240 / keyint_min=24 / scenecut=40 / intra_refresh=0 / rc_lookahead=20 / rc=2pass / mbtree=1 / bitrate=1500 / ratetol=1.0 / qcomp=0.60 / qpmin=0 / qpmax=69 / qpstep=4 / cplxblur=20.0 / qblur=0.5 / vbv_maxrate=300000 / vbv_bufsize=300000 / nal_hrd=none / filler=0 / ip_ratio=1.40 / aq=1:1.00
Language                    : English
Default                     : Yes
Forced                      : No
Color range                 : Limited
Color primaries             : BT.709
Transfer characteristics    : BT.709
Matrix coefficients         : BT.709
Statistics Tags Issue       : mkvmerge v19.0.0 ('Brave Captain') 64-bit 2018-05-11 12:15:19 / mkvmerge v19.0.0 ('Brave Captain') 64-bit 2018-05-11 12:15:19 / UTC 2018-05-11T07:14:49Z
FromStats_BitRate           : 1499146
FromStats_Duration          : 02:20:13.238000000
FromStats_FrameCount        : 201716
FromStats_StreamSize        : 1576584217

Audio
ID                          : 2
Format                      : E-AC-3
Format/Info                 : Enhanced Audio Coding 3
Codec ID                    : A_EAC3
Duration                    : 2 h 20 min
Bit rate mode               : Constant
Bit rate                    : 256 kb/s
Channel(s)                  : 6 channels
Channel positions           : Front: L C R, Side: L R, LFE
Sampling rate               : 48.0 kHz
Frame rate                  : 187.500 FPS (256 SPF)
Compression mode            : Lossy
Stream size                 : 257 MiB (15%)
Title                       : Red Sparrow (2018)
Language                    : English
Service kind                : Complete Main
Default                     : Yes
Forced                      : No
Statistics Tags Issue       : mkvmerge v19.0.0 ('Brave Captain') 64-bit 2018-05-11 12:15:19 / mkvmerge v19.0.0 ('Brave Captain') 64-bit 2018-05-11 12:15:19 / UTC 2018-05-11T07:14:49Z
FromStats_BitRate           : 256000
FromStats_Duration          : 02:20:13.248000000
FromStats_FrameCount        : 262914
FromStats_StreamSize        : 269223936

Text
ID                          : 3
Format                      : UTF-8
Codec ID                    : S_TEXT/UTF8
Codec ID/Info               : UTF-8 Plain Text
Title                       : CRVENI VRABAC
Language                    : Croatian
Default                     : Yes
Forced                      : No
Statistics Tags Issue       : mkvmerge v19.0.0 ('Brave Captain') 64-bit 2018-05-11 12:15:19 / mkvmerge v19.0.0 ('Brave Captain') 64-bit 2018-05-11 12:15:19 / UTC 2018-05-11T07:14:49Z
FromStats_BitRate           : 41
FromStats_Duration          : 02:12:20.603000000
FromStats_FrameCount        : 1444
FromStats_StreamSize        : 41187





Ovde je skriveni sadržaj !!!
Ovaj sadržaj mogu videti samo registrovani članovi nakon zahvaljivanja na dugme HVALA




https://i.imgur.com/eKXyVHJ.png
Red Sparrow (2018)

https://i.imgur.com/gnYsKHP.jpg
Red Sparrow (2018)
...sve će to narod pozlatiti