Nalazite se trenutno ovde:

*
MS Tim

W3Schools

    D O B R O    D O S L I    ! ! !




-->> DMCA <<---

* Pravila foruma

KODIRANJE LINKOVA
Sve linkove ili grupe linkova koji vode ka drugim sajtovima, a koje ostavljate u svojim porukama morate staviti izmedju odgovarajućih CODE tagova

DUPLIRANJE TEMA
Pre nego što želite da otvorite neku temu i postavite neke linkove...izvršite PRETRAGU. Izaberete željenu sekciju i namestite da Vam pretraga prikaže rezultate kao TEME, da biste imali sto pregledniji uvid u postavljene teme na forumu i da izbegnete da postavite duplikat.

POSTAVLJANJE TEMA
Da biste sebi i drugim članovima olakšali pretragu na forumu, potrebno je da temama date originalne nazive i godine proizvodnje.


DJECA (2015) Denisa Bojica

Autor (Pročitano 73 puta)

0 Članovi i 1 gost pregledaju ovu temu.

DJECA (2015) Denisa Bojica
« poslato: 26 Decembar 2016, 15:01:29 »
 

Van mreže Wolf 13

  • Zahvalnice
  • -Zahvalio: 146
  • -Pohvaljen: 3312
  • VIP
  • Veteran
  • *
  • 507
    Poruke
DJECA (2015)
(MP4)



DJECA.RTRS.720p.HDrip.x264.by.Wolf

Citat
Film "Djeca" (produkcije RTRS i autora Denisa Bojića) dokumentuje jednu od najvećih i srpskoj javnosti malo poznatih tragedija našeg naroda u posljednjoj deceniji 20. vijeka. Ima za cilj da istovremeno čuva kulturu sjećanja i pokaže koliko su Srbi kao narod nedovoljno svjesni svoje nedavne prošlosti i heroja, koje je ona za sobom ostavila.
Opštepoznati lik Stojanke majke Knežopoljke izgradio je i utisnuo u srpsko kolektivno biće simbol stradanja, žrtve i rodoljubivosti. U proteklom ratu, nažalost, bilo je 18 "majki Knežopoljki", koje su dale po tri sina za odbranu otadžbine. Naša je obaveza da ih pamtimo s najvećim dostojanstvom.Film na jedinstven i autentičan način predstavlja jedino i posljednje svjedočenje četiri preživjela roditelja, od ukupno trideset i šest očeva i majki, koje su izgubile po troje djece.
Cilj ovog filma bio je ispričati priču o herojima srpskog naroda, otrgnuti od zaborava palu djecu i njihove roditelje te da kompletna srpska zajednica i što šira svjetska javnost čuju ove tragične činjenice i donesu svoj sud o ovim događajima.
Ovaj film je trajni zapis o tragediji, koja nikada ne smije izblijediti iz našeg pamćenja, kao ni žrtve koje su podnijeli roditelji koji su izgubili svoju djecu.

Citat
General
DJECA.RTRS.720p.HDrip.x264.by.W.m4v
Format                      : MPEG-4
Codec ID                    : M4V  (isom/avc1/M4A /M4V /mp42)
File size                   : 1.94 GiB
Duration                    : 1 h 22 min
Overall bit rate mode       : Variable
Overall bit rate            : 3 364 kb/s
Movie name                  : DJECA-RTRS
Genre                       : Documentary
ContentType                 : Short Film
Encoded date                : UTC 2016-12-25 14:58:24
Tagged date                 : UTC 2016-12-25 15:01:02
Writing application         : MkvToMp4 [www.mkvtomp4.ru] version: 0.224 (x64)
HDVideo                     : Yes

Video
ID                          : 1
Format                      : AVC
Format/Info                 : Advanced Video Codec
Format profile              : High@L4.1
Format settings, CABAC      : Yes
Format settings, ReFrames   : 4 frames
Codec ID                    : avc1
Codec ID/Info               : Advanced Video Coding
Duration                    : 1 h 22 min
Bit rate                    : 3 229 kb/s
Maximum bit rate            : 28.6 Mb/s
Width                       : 1 280 pixels
Height                      : 720 pixels
Display aspect ratio        : 16:9
Frame rate mode             : Constant
Frame rate                  : 25.000 FPS
Color space                 : YUV
Chroma subsampling          : 4:2:0
Bit depth                   : 8 bits
Scan type                   : Progressive
Bits/(Pixel*Frame)          : 0.140
Stream size                 : 1.86 GiB (96%)
Writing library             : x264 core 133 r2334 a3ac64b
Encoding settings           : cabac=1 / ref=2 / deblock=1:0:0 / analyse=0x3:0x113 / me=hex / subme=4 / psy=1 / psy_rd=1.00:0.00 / mixed_ref=0 / me_range=16 / chroma_me=1 / trellis=1 / 8x8dct=1 / cqm=0 / deadzone=21,11 / fast_pskip=1 / chroma_qp_offset=0 / threads=3 / lookahead_threads=1 / sliced_threads=0 / nr=0 / decimate=1 / interlaced=0 / bluray_compat=0 / constrained_intra=0 / bframes=3 / b_pyramid=2 / b_adapt=1 / b_bias=0 / direct=1 / weightb=1 / open_gop=0 / weightp=1 / keyint=250 / keyint_min=25 / scenecut=40 / intra_refresh=0 / rc_lookahead=20 / rc=crf / mbtree=1 / crf=20.0 / qcomp=0.60 / qpmin=0 / qpmax=69 / qpstep=4 / ip_ratio=1.40 / aq=1:1.00
Language                    : English
Encoded date                : UTC 2016-12-25 14:58:24
Tagged date                 : UTC 2016-12-25 14:59:37

Audio
ID                          : 2
Format                      : AAC
Format/Info                 : Advanced Audio Codec
Format profile              : LC
Codec ID                    : 40
Duration                    : 1 h 22 min
Bit rate mode               : Variable
Bit rate                    : 129 kb/s
Channel(s)                  : 1 channel
Channel positions           : Front: C
Sampling rate               : 48.0 kHz
Frame rate                  : 46.875 FPS (1024 spf)
Compression mode            : Lossy
Stream size                 : 75.7 MiB (4%)
Language                    : Serbian
Default                     : Yes
Alternate group             : 1
Encoded date                : UTC 2016-12-25 14:59:28
Tagged date                 : UTC 2016-12-25 14:59:37





Ovde je skriveni sadržaj !!!
Ovaj sadržaj mogu videti samo registrovani članovi nakon zahvaljivanja na dugme HVALA




http://i.imgur.com/yThYRRH.jpg
DJECA (2015) Denisa Bojica

http://i.imgur.com/0bAQwec.jpg
DJECA (2015) Denisa Bojica

http://i.imgur.com/XMX4kTo.jpg
DJECA (2015) Denisa Bojica

http://i.imgur.com/f9NPVYy.jpg
DJECA (2015) Denisa Bojica

http://i.imgur.com/XoB7ib8.jpg
DJECA (2015) Denisa Bojica
...sve će to narod pozlatiti