Nalazite se trenutno ovde:

*
MS Tim

W3Schools

    D O B R O    D O S L I    ! ! !




-->> DMCA <<---

* Pravila foruma

KODIRANJE LINKOVA
Sve linkove ili grupe linkova koji vode ka drugim sajtovima, a koje ostavljate u svojim porukama morate staviti izmedju odgovarajućih CODE tagova

DUPLIRANJE TEMA
Pre nego što želite da otvorite neku temu i postavite neke linkove...izvršite PRETRAGU. Izaberete željenu sekciju i namestite da Vam pretraga prikaže rezultate kao TEME, da biste imali sto pregledniji uvid u postavljene teme na forumu i da izbegnete da postavite duplikat.

POSTAVLJANJE TEMA
Da biste sebi i drugim članovima olakšali pretragu na forumu, potrebno je da temama date originalne nazive i godine proizvodnje.


Aladdin fullHD - Аладин 1 на српском језику (1080p)

Autor (Pročitano 1194 puta)

0 Članovi i 1 gost pregledaju ovu temu.

 

Na mreži simark

  • Zahvalnice
  • -Zahvalio: 85
  • -Pohvaljen: 2160
  • Aktivan član
  • ******
  • 38
    Poruke
Аладин 1 на српском језику
 у високој резолуцији

Aladdin 1992 fullHD 1080p
http://orig15.deviantart.net/06ed/f/2014/301/f/5/aladin_by_nightghost95-d84fkrl.jpg
Aladdin fullHD - Аладин 1 на српском језику (1080p)

Најзад на овом месту Дизнијев класик на српском језику, у високој резолуцији, и са (нажалост) стерео звуком.    Уживајте...

 [info]
Complete name                     Аладин-Aladdin.1992.serbian.1080p.mkv
Format                                   : Matroska
Format version                           : Version 4 / Version 2
File size                                : 1.20 GiB
Duration                                 : 1h 30mn
Overall bit rate                         : 1 899 Kbps
Encoded date                             : UTC 2016-08-02 16:06:23
Writing application                      : mkvmerge v8.9.0 ('Father Daughter') 32bit
Writing library                          : libebml v1.3.3 + libmatroska v1.4.4
ID                                       : 1
Format                                   : AVC
Format/Info                              : Advanced Video Codec
Format profile                           : High@L4
Format settings, CABAC                   : Yes
Format settings, ReFrames                : 4 frames
Codec ID                                 : V_MPEG4/ISO/AVC
Duration                                 : 1h 30mn
Bit rate                                 : 1 829 Kbps
Width                                    : 1 920 pixels
Height                                   : 1 038 pixels
Display aspect ratio                     : 1.85:1
Frame rate mode                          : Constant
Frame rate                               : 23.976 (24000/1001) fps
Color space                              : YUV
Chroma subsampling                       : 4:2:0
Bit depth                                : 8 bits
Scan type                                : Progressive
Bits/(Pixel*Frame)                       : 0.038
Stream size                              : 1.16 GiB (96%)
Writing library                          : x264 core 130 r2273 b3065e6
Language                                 : English
Default                                  : Yes
Forced                                   : No
ID                                       : 2
Format                                   : AAC
Format/Info                              : Advanced Audio Codec
Format profile                           : LC
Codec ID                                 : A_AAC
Duration                                 : 1h 30mn
Bit rate                                 : 69.4 Kbps
Channel(s)                               : 2 channels
Channel positions                        : Front: L R
Sampling rate                            : 44.1 KHz
Frame rate                               : 43.066 fps (1024 spf)
Compression mode                         : Lossy
Delay relative to video                  : 17s 0ms
Stream size                              : 44.9 MiB (4%)
Title                                    : српски
Language                                 : Serbian
Default                                  : Yes
Forced                                   : No

 [download]
                                                                           



Ovde je skriveni sadržaj !!!
Ovaj sadržaj mogu videti samo registrovani članovi nakon zahvaljivanja na dugme HVALA




Нема шифре.........                                                                       
« Poslednja izmena: 04 Decembar 2016, 13:25:49 od strane simark »
 



Odg: Aladdin fullHD - Аладин 1 на српском језику (1080p)
« Odgovor #1 poslato: 10 Januar 2017, 15:02:23 »
 

Van mreže nikolabk

  • Zahvalnice
  • -Zahvalio: 56
  • -Pohvaljen: 2
  • Nov član
  • **
  • 2
    Poruke
Moze li mala pomoc?
Kako otpakovati ovaj fajl?
Hvala
 

Odg: Aladdin fullHD - Аладин 1 на српском језику (1080p)
« Odgovor #2 poslato: 10 Januar 2017, 17:25:48 »
 

Na mreži simark

  • Zahvalnice
  • -Zahvalio: 85
  • -Pohvaljen: 2160
  • Aktivan član
  • ******
  • 38
    Poruke
Програмом 7-zip, winrar, winzip...